  0
SECTION
  2
HEADER
  9
$ACADVER
  1
AC1018
  9
$ACADMAINTVER
 70
     0
  9
$DWGCODEPAGE
  3
ANSI_1252
  9
$INSBASE
 10
0.0
 20
0.0
 30
0.0
  9
$EXTMIN
 10
2820.723611292545
 20
1326.0
 30
0.0
  9
$EXTMAX
 10
4021.150019512991
 20
3636.725147419386
 30
0.0
  9
$LIMMIN
 10
0.0
 20
0.0
  9
$LIMMAX
 10
12.0
 20
9.0
  9
$ORTHOMODE
 70
     0
  9
$REGENMODE
 70
     1
  9
$FILLMODE
 70
     1
  9
$QTEXTMODE
 70
     0
  9
$MIRRTEXT
 70
     1
  9
$LTSCALE
 40
1.0
  9
$ATTMODE
 70
     1
  9
$TEXTSIZE
 40
0.2
  9
$TRACEWID
 40
0.05
  9
$TEXTSTYLE
  7
Standard
  9
$CLAYER
  8
Predefinito
  9
$CELTYPE
  6
ByLayer
  9
$CECOLOR
 62
   256
  9
$CELTSCALE
 40
1.0
  9
$DISPSILH
 70
     0
  9
$DIMSCALE
 40
1.0
  9
$DIMASZ
 40
0.18
  9
$DIMEXO
 40
0.0625
  9
$DIMDLI
 40
0.38
  9
$DIMRND
 40
0.0
  9
$DIMDLE
 40
0.0
  9
$DIMEXE
 40
0.18
  9
$DIMTP
 40
0.0
  9
$DIMTM
 40
0.0
  9
$DIMTXT
 40
0.18
  9
$DIMCEN
 40
0.09
  9
$DIMTSZ
 40
0.0
  9
$DIMTOL
 70
     0
  9
$DIMLIM
 70
     0
  9
$DIMTIH
 70
     1
  9
$DIMTOH
 70
     1
  9
$DIMSE1
 70
     0
  9
$DIMSE2
 70
     0
  9
$DIMTAD
 70
     0
  9
$DIMZIN
 70
     0
  9
$DIMBLK
  1

  9
$DIMASO
 70
     1
  9
$DIMSHO
 70
     1
  9
$DIMPOST
  1

  9
$DIMAPOST
  1

  9
$DIMALT
 70
     0
  9
$DIMALTD
 70
     2
  9
$DIMALTF
 40
25.4
  9
$DIMLFAC
 40
1.0
  9
$DIMTOFL
 70
     0
  9
$DIMTVP
 40
0.0
  9
$DIMTIX
 70
     0
  9
$DIMSOXD
 70
     0
  9
$DIMSAH
 70
     0
  9
$DIMBLK1
  1

  9
$DIMBLK2
  1

  9
$DIMSTYLE
  2
Standard
  9
$DIMCLRD
 70
     0
  9
$DIMCLRE
 70
     0
  9
$DIMCLRT
 70
     0
  9
$DIMTFAC
 40
1.0
  9
$DIMGAP
 40
0.09
  9
$DIMJUST
 70
     0
  9
$DIMSD1
 70
     0
  9
$DIMSD2
 70
     0
  9
$DIMTOLJ
 70
     1
  9
$DIMTZIN
 70
     0
  9
$DIMALTZ
 70
     0
  9
$DIMALTTZ
 70
     0
  9
$DIMUPT
 70
     0
  9
$DIMDEC
 70
     4
  9
$DIMTDEC
 70
     4
  9
$DIMALTU
 70
     2
  9
$DIMALTTD
 70
     2
  9
$DIMTXSTY
  7
Standard
  9
$DIMAUNIT
 70
     0
  9
$DIMADEC
 70
     0
  9
$DIMALTRND
 40
0.0
  9
$DIMAZIN
 70
     0
  9
$DIMDSEP
 70
    46
  9
$DIMATFIT
 70
     3
  9
$DIMFRAC
 70
     0
  9
$DIMLDRBLK
  1

  9
$DIMLUNIT
 70
     2
  9
$DIMLWD
 70
    -2
  9
$DIMLWE
 70
    -2
  9
$DIMTMOVE
 70
     2
  9
$LUNITS
 70
     2
  9
$LUPREC
 70
     3
  9
$SKETCHINC
 40
0.1
  9
$FILLETRAD
 40
0.5
  9
$AUNITS
 70
     0
  9
$AUPREC
 70
     0
  9
$MENU
  1
.
  9
$ELEVATION
 40
0.0
  9
$PELEVATION
 40
0.0
  9
$THICKNESS
 40
0.0
  9
$LIMCHECK
 70
     0
  9
$CHAMFERA
 40
0.5
  9
$CHAMFERB
 40
0.5
  9
$CHAMFERC
 40
1.0
  9
$CHAMFERD
 40
0.0
  9
$SKPOLY
 70
     0
  9
$TDCREATE
 40
2457421.734888183
  9
$TDUCREATE
 40
2457421.693221516
  9
$TDUPDATE
 40
2457421.734888195
  9
$TDUUPDATE
 40
2457421.693221528
  9
$TDINDWG
 40
0.0000000116
  9
$TDUSRTIMER
 40
0.0000000116
  9
$USRTIMER
 70
     1
  9
$ANGBASE
 50
0.0
  9
$ANGDIR
 70
     0
  9
$PDMODE
 70
     0
  9
$PDSIZE
 40
0.0
  9
$PLINEWID
 40
0.0
  9
$SPLFRAME
 70
     0
  9
$SPLINETYPE
 70
     6
  9
$SPLINESEGS
 70
     8
  9
$HANDSEED
  5
12A
  9
$SURFTAB1
 70
     6
  9
$SURFTAB2
 70
     6
  9
$SURFTYPE
 70
     6
  9
$SURFU
 70
     6
  9
$SURFV
 70
     6
  9
$UCSBASE
  2

  9
$UCSNAME
  2

  9
$UCSORG
 10
0.0
 20
0.0
 30
0.0
  9
$UCSXDIR
 10
1.0
 20
0.0
 30
0.0
  9
$UCSYDIR
 10
0.0
 20
1.0
 30
0.0
  9
$UCSORTHOREF
  2

  9
$UCSORTHOVIEW
 70
     0
  9
$UCSORGTOP
 10
0.0
 20
0.0
 30
0.0
  9
$UCSORGBOTTOM
 10
0.0
 20
0.0
 30
0.0
  9
$UCSORGLEFT
 10
0.0
 20
0.0
 30
0.0
  9
$UCSORGRIGHT
 10
0.0
 20
0.0
 30
0.0
  9
$UCSORGFRONT
 10
0.0
 20
0.0
 30
0.0
  9
$UCSORGBACK
 10
0.0
 20
0.0
 30
0.0
  9
$PUCSBASE
  2

  9
$PUCSNAME
  2

  9
$PUCSORG
 10
0.0
 20
0.0
 30
0.0
  9
$PUCSXDIR
 10
1.0
 20
0.0
 30
0.0
  9
$PUCSYDIR
 10
0.0
 20
1.0
 30
0.0
  9
$PUCSORTHOREF
  2

  9
$PUCSORTHOVIEW
 70
     0
  9
$PUCSORGTOP
 10
0.0
 20
0.0
 30
0.0
  9
$PUCSORGBOTTOM
 10
0.0
 20
0.0
 30
0.0
  9
$PUCSORGLEFT
 10
0.0
 20
0.0
 30
0.0
  9
$PUCSORGRIGHT
 10
0.0
 20
0.0
 30
0.0
  9
$PUCSORGFRONT
 10
0.0
 20
0.0
 30
0.0
  9
$PUCSORGBACK
 10
0.0
 20
0.0
 30
0.0
  9
$USERI1
 70
     0
  9
$USERI2
 70
     0
  9
$USERI3
 70
     0
  9
$USERI4
 70
     0
  9
$USERI5
 70
     0
  9
$USERR1
 40
0.0
  9
$USERR2
 40
0.0
  9
$USERR3
 40
0.0
  9
$USERR4
 40
0.0
  9
$USERR5
 40
0.0
  9
$WORLDVIEW
 70
     1
  9
$SHADEDGE
 70
     3
  9
$SHADEDIF
 70
    70
  9
$TILEMODE
 70
     1
  9
$MAXACTVP
 70
    64
  9
$PINSBASE
 10
0.0
 20
0.0
 30
0.0
  9
$PLIMCHECK
 70
     0
  9
$PEXTMIN
 10
1.000000000000000E+20
 20
1.000000000000000E+20
 30
1.000000000000000E+20
  9
$PEXTMAX
 10
-1.000000000000000E+20
 20
-1.000000000000000E+20
 30
-1.000000000000000E+20
  9
$PLIMMIN
 10
0.0
 20
0.0
  9
$PLIMMAX
 10
12.0
 20
9.0
  9
$UNITMODE
 70
     0
  9
$VISRETAIN
 70
     1
  9
$PLINEGEN
 70
     0
  9
$PSLTSCALE
 70
     1
  9
$TREEDEPTH
 70
  3020
  9
$CMLSTYLE
  2
Standard
  9
$CMLJUST
 70
     0
  9
$CMLSCALE
 40
1.0
  9
$PROXYGRAPHICS
 70
     1
  9
$MEASUREMENT
 70
     0
  9
$CELWEIGHT
370
    -1
  9
$ENDCAPS
280
     0
  9
$JOINSTYLE
280
     0
  9
$LWDISPLAY
290
     0
  9
$INSUNITS
 70
     4
  9
$HYPERLINKBASE
  1

  9
$STYLESHEET
  1

  9
$XEDIT
290
     1
  9
$CEPSNTYPE
380
     0
  9
$PSTYLEMODE
290
     1
  9
$FINGERPRINTGUID
  2
{0F895853-B76C-4561-8600-DC536D479EF2}
  9
$VERSIONGUID
  2
{FAEB1C32-E019-11D5-929B-00C0DF256EC4}
  9
$EXTNAMES
290
     1
  9
$PSVPSCALE
 40
0.0
  9
$OLESTARTUP
290
     0
  9
$SORTENTS
280
   127
  9
$INDEXCTL
280
     0
  9
$HIDETEXT
280
     1
  9
$XCLIPFRAME
290
     0
  9
$HALOGAP
280
     0
  9
$OBSCOLOR
 70
   257
  9
$OBSLTYPE
280
     0
  9
$INTERSECTIONDISPLAY
280
     0
  9
$INTERSECTIONCOLOR
 70
   257
  9
$DIMASSOC
280
     2
  9
$PROJECTNAME
  1

  0
ENDSEC
  0
SECTION
  2
CLASSES
  0
CLASS
  1
ACDBDICTIONARYWDFLT
  2
AcDbDictionaryWithDefault
  3
ObjectDBX Classes
 90
        0
 91
        4
280
     0
281
     0
  0
CLASS
  1
VISUALSTYLE
  2
AcDbVisualStyle
  3
ObjectDBX Classes
 90
     4095
 91
        4
280
     0
281
     0
  0
CLASS
  1
SCALE
  2
AcDbScale
  3
ObjectDBX Classes
 90
     1153
 91
        4
280
     0
281
     0
  0
CLASS
  1
DICTIONARYVAR
  2
AcDbDictionaryVar
  3
ObjectDBX Classes
 90
        0
 91
        4
280
     0
281
     0
  0
ENDSEC
  0
SECTION
  2
TABLES
  0
TABLE
  2
VPORT
  5
8
330
0
100
AcDbSymbolTable
 70
     1
  0
VPORT
  5
29
330
8
100
AcDbSymbolTableRecord
100
AcDbViewportTableRecord
  2
*Active
 70
     0
 10
0.0
 20
0.0
 11
1.0
 21
1.0
 12
3420.936815402768
 22
2481.362573709693
 13
0.0
 23
0.0
 14
0.5
 24
0.5
 15
0.5
 25
0.5
 16
0.0
 26
0.0
 36
1.0
 17
0.0
 27
0.0
 37
0.0
 40
2356.939650367774
 41
0.5195020314558313
 42
50.0
 43
0.0
 44
0.0
 50
0.0
 51
0.0
 71
     0
 72
   100
 73
     1
 74
     3
 75
     0
 76
     0
 77
     0
 78
     0
281
     0
 65
     1
110
0.0
120
0.0
130
0.0
111
1.0
121
0.0
131
0.0
112
0.0
122
1.0
132
0.0
 79
     0
146
0.0
  0
ENDTAB
  0
TABLE
  2
LTYPE
  5
5
330
0
100
AcDbSymbolTable
 70
     1
  0
LTYPE
  5
14
330
5
100
AcDbSymbolTableRecord
100
AcDbLinetypeTableRecord
  2
ByBlock
 70
     0
  3

 72
    65
 73
     0
 40
0.0
  0
LTYPE
  5
15
330
5
100
AcDbSymbolTableRecord
100
AcDbLinetypeTableRecord
  2
ByLayer
 70
     0
  3

 72
    65
 73
     0
 40
0.0
  0
LTYPE
  5
16
330
5
100
AcDbSymbolTableRecord
100
AcDbLinetypeTableRecord
  2
Continuous
 70
     0
  3
Solid line
 72
    65
 73
     0
 40
0.0
  0
ENDTAB
  0
TABLE
  2
LAYER
  5
2
330
0
100
AcDbSymbolTable
 70
     5
  0
LAYER
  5
10
330
2
100
AcDbSymbolTableRecord
100
AcDbLayerTableRecord
  2
0
 70
     0
 62
     7
  6
Continuous
370
    -3
390
F
  0
LAYER
  5
3B
330
2
100
AcDbSymbolTableRecord
100
AcDbLayerTableRecord
  2
Predefinito
 70
     0
 62
     7
  6
Continuous
370
    -3
390
F
  0
LAYER
  5
61
330
2
100
AcDbSymbolTableRecord
100
AcDbLayerTableRecord
  2
Defpoints
 70
     0
 62
     7
  6
Continuous
290
     0
370
    -3
390
F
  0
LAYER
  5
99
330
2
100
AcDbSymbolTableRecord
100
AcDbLayerTableRecord
  2
Linee visibili 2D
 70
     0
 62
     7
  6
Continuous
370
    -3
390
F
  0
LAYER
  5
A9
330
2
100
AcDbSymbolTableRecord
100
AcDbLayerTableRecord
  2
Linee visibili 2D - Tangent
 70
     0
 62
     7
  6
Continuous
370
    -3
390
F
  0
ENDTAB
  0
TABLE
  2
STYLE
  5
3
330
0
100
AcDbSymbolTable
 70
     2
  0
STYLE
  5
11
330
3
100
AcDbSymbolTableRecord
100
AcDbTextStyleTableRecord
  2
Standard
 70
     0
 40
0.0
 41
1.0
 50
0.0
 71
     0
 42
0.2
  3
txt
  4

  0
STYLE
  5
5F
330
3
100
AcDbSymbolTableRecord
100
AcDbTextStyleTableRecord
  2
Predefinito
 70
     0
 40
0.0
 41
1.0
 50
0.0
 71
     0
 42
0.0
  3

  4

1001
ACAD
1000
Arial
1071
      256
  0
ENDTAB
  0
TABLE
  2
VIEW
  5
6
330
0
100
AcDbSymbolTable
 70
     0
  0
ENDTAB
  0
TABLE
  2
UCS
  5
7
330
0
100
AcDbSymbolTable
 70
     0
  0
ENDTAB
  0
TABLE
  2
APPID
  5
9
330
0
100
AcDbSymbolTable
 70
     1
  0
APPID
  5
12
330
9
100
AcDbSymbolTableRecord
100
AcDbRegAppTableRecord
  2
ACAD
 70
     0
  0
ENDTAB
  0
TABLE
  2
DIMSTYLE
  5
A
330
0
100
AcDbSymbolTable
 70
     2
100
AcDbDimStyleTable
  0
DIMSTYLE
105
27
330
A
100
AcDbSymbolTableRecord
100
AcDbDimStyleTableRecord
  2
Standard
 70
     0
340
11
  0
DIMSTYLE
105
60
102
{ACAD_REACTORS
330
3C
330
6E
330
7B
330
88
102
}
330
A
100
AcDbSymbolTableRecord
100
AcDbDimStyleTableRecord
  2
Stile di quota 01
 70
     0
 40
10.0
 41
1.0
 42
0.5
 44
0.5
 73
     0
 77
     1
 78
     1
140
1.0
141
0.5
172
     1
174
     1
179
     2
271
     2
284
     1
340
5F
  0
ENDTAB
  0
TABLE
  2
BLOCK_RECORD
  5
1
330
0
100
AcDbSymbolTable
 70
     5
  0
BLOCK_RECORD
  5
1F
330
1
100
AcDbSymbolTableRecord
100
AcDbBlockTableRecord
  2
*Model_Space
340
22
  0
BLOCK_RECORD
  5
1B
330
1
100
AcDbSymbolTableRecord
100
AcDbBlockTableRecord
  2
*Paper_Space
340
1E
  0
BLOCK_RECORD
  5
23
330
1
100
AcDbSymbolTableRecord
100
AcDbBlockTableRecord
  2
*Paper_Space0
340
26
  0
BLOCK_RECORD
  5
62
330
1
100
AcDbSymbolTableRecord
100
AcDbBlockTableRecord
  2
*D1
340
0
  0
BLOCK_RECORD
  5
6F
330
1
100
AcDbSymbolTableRecord
100
AcDbBlockTableRecord
  2
*D2
340
0
  0
BLOCK_RECORD
  5
7C
330
1
100
AcDbSymbolTableRecord
100
AcDbBlockTableRecord
  2
*D3
340
0
  0
BLOCK_RECORD
  5
89
330
1
100
AcDbSymbolTableRecord
100
AcDbBlockTableRecord
  2
*D4
340
0
  0
ENDTAB
  0
ENDSEC
  0
SECTION
  2
BLOCKS
  0
BLOCK
  5
20
330
1F
100
AcDbEntity
  8
0
100
AcDbBlockBegin
  2
*Model_Space
 70
     0
 10
0.0
 20
0.0
 30
0.0
  3
*Model_Space
  1

  0
ENDBLK
  5
21
330
1F
100
AcDbEntity
  8
0
100
AcDbBlockEnd
  0
BLOCK
  5
1C
330
1B
100
AcDbEntity
 67
     1
  8
0
100
AcDbBlockBegin
  2
*Paper_Space
 70
     0
 10
0.0
 20
0.0
 30
0.0
  3
*Paper_Space
  1

  0
ENDBLK
  5
1D
330
1B
100
AcDbEntity
 67
     1
  8
0
100
AcDbBlockEnd
  0
BLOCK
  5
24
330
23
100
AcDbEntity
  8
0
100
AcDbBlockBegin
  2
*Paper_Space0
 70
     0
 10
0.0
 20
0.0
 30
0.0
  3
*Paper_Space0
  1

  0
ENDBLK
  5
25
330
23
100
AcDbEntity
  8
0
100
AcDbBlockEnd
  0
BLOCK
  5
6C
330
62
100
AcDbEntity
  8
0
100
AcDbBlockBegin
  2
*D1
 70
     1
 10
0.0
 20
0.0
 30
0.0
  3
*D1
  1

  0
LINE
  5
63
330
62
100
AcDbEntity
  8
Predefinito
 62
     0
370
    -2
100
AcDbLine
 10
3721.150019512991
 20
1829.724380939388
 30
0.0
 11
3721.150019512991
 21
1758.724380939388
 31
0.0
  0
LINE
  5
64
330
62
100
AcDbEntity
  8
Predefinito
 62
     0
370
    -2
100
AcDbLine
 10
4021.150019512991
 20
1829.724380939388
 30
0.0
 11
4021.150019512991
 21
1758.724380939388
 31
0.0
  0
LINE
  5
65
330
62
100
AcDbEntity
  8
Predefinito
 62
     0
370
    -2
100
AcDbLine
 10
3731.150019512991
 20
1763.724380939388
 30
0.0
 11
4011.150019512991
 21
1763.724380939388
 31
0.0
  0
SOLID
  5
66
330
62
100
AcDbEntity
  8
Predefinito
 62
     0
100
AcDbTrace
 10
3731.150019512991
 20
1765.391047606055
 30
0.0
 11
3731.150019512991
 21
1762.057714272721
 31
0.0
 12
3721.150019512991
 22
1763.724380939388
 32
0.0
 13
3721.150019512991
 23
1763.724380939388
 33
0.0
  0
SOLID
  5
67
330
62
100
AcDbEntity
  8
Predefinito
 62
     0
100
AcDbTrace
 10
4011.150019512991
 20
1762.057714272721
 30
0.0
 11
4011.150019512991
 21
1765.391047606055
 31
0.0
 12
4021.150019512991
 22
1763.724380939388
 32
0.0
 13
4021.150019512991
 23
1763.724380939388
 33
0.0
  0
MTEXT
  5
68
330
62
100
AcDbEntity
  8
Predefinito
 62
     0
100
AcDbMText
 10
3871.150019512991
 20
1769.909380939388
 30
0.0
 40
10.0
 41
0.0
 71
     5
 72
     1
  1
\A1;ø 300
  7
Predefinito
 73
     1
 44
1.0
  0
POINT
  5
69
330
62
100
AcDbEntity
  8
Defpoints
 62
     0
100
AcDbPoint
 10
3721.150019512991
 20
1834.724380939388
 30
0.0
  0
POINT
  5
6A
330
62
100
AcDbEntity
  8
Defpoints
 62
     0
100
AcDbPoint
 10
4021.150019512991
 20
1834.724380939388
 30
0.0
  0
POINT
  5
6B
330
62
100
AcDbEntity
  8
Defpoints
 62
     0
100
AcDbPoint
 10
4021.150019512991
 20
1763.724380939388
 30
0.0
  0
ENDBLK
  5
6D
330
62
100
AcDbEntity
  8
0
100
AcDbBlockEnd
  0
BLOCK
  5
79
330
6F
100
AcDbEntity
  8
0
100
AcDbBlockBegin
  2
*D2
 70
     1
 10
0.0
 20
0.0
 30
0.0
  3
*D2
  1

  0
LINE
  5
70
330
6F
100
AcDbEntity
  8
Predefinito
 62
     0
370
    -2
100
AcDbLine
 10
2986.853611292545
 20
3435.235147419387
 30
0.0
 11
2826.853611292545
 21
3435.235147419387
 31
0.0
  0
LINE
  5
71
330
6F
100
AcDbEntity
  8
Predefinito
 62
     0
370
    -2
100
AcDbLine
 10
3067.502078166304
 20
1835.235147419386
 30
0.0
 11
2826.853611292545
 21
1835.235147419386
 31
0.0
  0
LINE
  5
72
330
6F
100
AcDbEntity
  8
Predefinito
 62
     0
370
    -2
100
AcDbLine
 10
2831.853611292545
 20
3425.235147419387
 30
0.0
 11
2831.853611292545
 21
1845.235147419386
 31
0.0
  0
SOLID
  5
73
330
6F
100
AcDbEntity
  8
Predefinito
 62
     0
100
AcDbTrace
 10
2833.520277959211
 20
3425.235147419387
 30
0.0
 11
2830.186944625878
 21
3425.235147419387
 31
0.0
 12
2831.853611292545
 22
3435.235147419387
 32
0.0
 13
2831.853611292545
 23
3435.235147419387
 33
0.0
  0
SOLID
  5
74
330
6F
100
AcDbEntity
  8
Predefinito
 62
     0
100
AcDbTrace
 10
2830.186944625878
 20
1845.235147419386
 30
0.0
 11
2833.520277959211
 21
1845.235147419386
 31
0.0
 12
2831.853611292545
 22
1835.235147419386
 32
0.0
 13
2831.853611292545
 23
1835.235147419386
 33
0.0
  0
MTEXT
  5
75
330
6F
100
AcDbEntity
  8
Predefinito
 62
     0
100
AcDbMText
 10
2825.848611292545
 20
2635.235147419387
 30
0.0
 40
10.0
 41
0.0
 71
     5
 72
     1
  1
\A1;1600
  7
Predefinito
 11
0.0
 21
1.0
 31
0.0
 73
     1
 44
1.0
  0
POINT
  5
76
330
6F
100
AcDbEntity
  8
Defpoints
 62
     0
100
AcDbPoint
 10
2991.853611292545
 20
3435.235147419387
 30
0.0
  0
POINT
  5
77
330
6F
100
AcDbEntity
  8
Defpoints
 62
     0
100
AcDbPoint
 10
3072.502078166304
 20
1835.235147419386
 30
0.0
  0
POINT
  5
78
330
6F
100
AcDbEntity
  8
Defpoints
 62
     0
100
AcDbPoint
 10
2831.853611292545
 20
1835.235147419386
 30
0.0
  0
ENDBLK
  5
7A
330
6F
100
AcDbEntity
  8
0
100
AcDbBlockEnd
  0
BLOCK
  5
86
330
7C
100
AcDbEntity
  8
0
100
AcDbBlockBegin
  2
*D3
 70
     1
 10
0.0
 20
0.0
 30
0.0
  3
*D3
  1

  0
LINE
  5
7D
330
7C
100
AcDbEntity
  8
Predefinito
 62
     0
370
    -2
100
AcDbLine
 10
2991.853611292545
 20
3440.235147419387
 30
0.0
 11
2991.853611292545
 21
3630.235147419387
 31
0.0
  0
LINE
  5
7E
330
7C
100
AcDbEntity
  8
Predefinito
 62
     0
370
    -2
100
AcDbLine
 10
3372.215664785063
 20
3231.833247419386
 30
0.0
 11
3372.215664785063
 21
3630.235147419387
 31
0.0
  0
LINE
  5
7F
330
7C
100
AcDbEntity
  8
Predefinito
 62
     0
370
    -2
100
AcDbLine
 10
3001.853611292545
 20
3625.235147419387
 30
0.0
 11
3362.215664785063
 21
3625.235147419387
 31
0.0
  0
SOLID
  5
80
330
7C
100
AcDbEntity
  8
Predefinito
 62
     0
100
AcDbTrace
 10
3001.853611292545
 20
3626.901814086053
 30
0.0
 11
3001.853611292545
 21
3623.56848075272
 31
0.0
 12
2991.853611292545
 22
3625.235147419387
 32
0.0
 13
2991.853611292545
 23
3625.235147419387
 33
0.0
  0
SOLID
  5
81
330
7C
100
AcDbEntity
  8
Predefinito
 62
     0
100
AcDbTrace
 10
3362.215664785063
 20
3623.56848075272
 30
0.0
 11
3362.215664785063
 21
3626.901814086053
 31
0.0
 12
3372.215664785063
 22
3625.235147419387
 32
0.0
 13
3372.215664785063
 23
3625.235147419387
 33
0.0
  0
MTEXT
  5
82
330
7C
100
AcDbEntity
  8
Predefinito
 62
     0
100
AcDbMText
 10
3182.034638038804
 20
3631.240147419387
 30
0.0
 40
10.0
 41
0.0
 71
     5
 72
     1
  1
\A1;380^M^J
  7
Predefinito
 73
     1
 44
1.0
  0
POINT
  5
83
330
7C
100
AcDbEntity
  8
Defpoints
 62
     0
100
AcDbPoint
 10
2991.853611292545
 20
3435.235147419387
 30
0.0
  0
POINT
  5
84
330
7C
100
AcDbEntity
  8
Defpoints
 62
     0
100
AcDbPoint
 10
3372.215664785063
 20
3226.833247419386
 30
0.0
  0
POINT
  5
85
330
7C
100
AcDbEntity
  8
Defpoints
 62
     0
100
AcDbPoint
 10
3372.215664785063
 20
3625.235147419387
 30
0.0
  0
ENDBLK
  5
87
330
7C
100
AcDbEntity
  8
0
100
AcDbBlockEnd
  0
BLOCK
  5
93
330
89
100
AcDbEntity
  8
0
100
AcDbBlockBegin
  2
*D4
 70
     1
 10
0.0
 20
0.0
 30
0.0
  3
*D4
  1

  0
LINE
  5
8A
330
89
100
AcDbEntity
  8
Predefinito
 62
     0
370
    -2
100
AcDbLine
 10
3721.406429893632
 20
3231.322480939388
 30
0.0
 11
3721.406429893632
 21
3630.235147419387
 31
0.0
  0
LINE
  5
8B
330
89
100
AcDbEntity
  8
Predefinito
 62
     0
370
    -2
100
AcDbLine
 10
4020.893609132349
 20
3231.322480939388
 30
0.0
 11
4020.893609132349
 21
3630.235147419387
 31
0.0
  0
LINE
  5
8C
330
89
100
AcDbEntity
  8
Predefinito
 62
     0
370
    -2
100
AcDbLine
 10
3731.406429893632
 20
3625.235147419387
 30
0.0
 11
4010.893609132349
 21
3625.235147419387
 31
0.0
  0
SOLID
  5
8D
330
89
100
AcDbEntity
  8
Predefinito
 62
     0
100
AcDbTrace
 10
3731.406429893632
 20
3626.901814086053
 30
0.0
 11
3731.406429893632
 21
3623.56848075272
 31
0.0
 12
3721.406429893632
 22
3625.235147419387
 32
0.0
 13
3721.406429893632
 23
3625.235147419387
 33
0.0
  0
SOLID
  5
8E
330
89
100
AcDbEntity
  8
Predefinito
 62
     0
100
AcDbTrace
 10
4010.893609132349
 20
3623.56848075272
 30
0.0
 11
4010.893609132349
 21
3626.901814086053
 31
0.0
 12
4020.893609132349
 22
3625.235147419387
 32
0.0
 13
4020.893609132349
 23
3625.235147419387
 33
0.0
  0
MTEXT
  5
8F
330
89
100
AcDbEntity
  8
Predefinito
 62
     0
100
AcDbMText
 10
3871.150019512991
 20
3631.420147419386
 30
0.0
 40
10.0
 41
0.0
 71
     5
 72
     1
  1
\A1;ø 300
  7
Predefinito
 73
     1
 44
1.0
  0
POINT
  5
90
330
89
100
AcDbEntity
  8
Defpoints
 62
     0
100
AcDbPoint
 10
3721.406429893632
 20
3226.322480939388
 30
0.0
  0
POINT
  5
91
330
89
100
AcDbEntity
  8
Defpoints
 62
     0
100
AcDbPoint
 10
4020.893609132349
 20
3226.322480939388
 30
0.0
  0
POINT
  5
92
330
89
100
AcDbEntity
  8
Defpoints
 62
     0
100
AcDbPoint
 10
4020.893609132349
 20
3625.235147419387
 30
0.0
  0
ENDBLK
  5
94
330
89
100
AcDbEntity
  8
0
100
AcDbBlockEnd
  0
ENDSEC
  0
SECTION
  2
ENTITIES
  0
DIMENSION
  5
3C
330
1F
100
AcDbEntity
  8
Predefinito
100
AcDbDimension
  2
*D1
 10
4021.150019512991
 20
1763.724380939388
 30
0.0
 11
3871.150019512991
 21
1769.909380939388
 31
0.0
 70
    32
  1
ø 300
 71
     5
 42
300.0
  3
Stile di quota 01
100
AcDbAlignedDimension
 13
3721.150019512991
 23
1834.724380939388
 33
0.0
 14
4021.150019512991
 24
1834.724380939388
 34
0.0
100
AcDbRotatedDimension
1001
ACAD
1000
DSTYLE
1002
{
1070
   279
1070
     1
1002
}
  0
DIMENSION
  5
6E
330
1F
100
AcDbEntity
  8
Predefinito
100
AcDbDimension
  2
*D2
 10
2831.853611292545
 20
1835.235147419386
 30
0.0
 11
2825.848611292545
 21
2635.235147419387
 31
0.0
 70
    32
  1
1600
 71
     5
 42
1600.0
  3
Stile di quota 01
100
AcDbAlignedDimension
 13
2991.853611292545
 23
3435.235147419387
 33
0.0
 14
3072.502078166304
 24
1835.235147419386
 34
0.0
 50
90.0
100
AcDbRotatedDimension
1001
ACAD
1000
DSTYLE
1002
{
1070
   279
1070
     1
1002
}
  0
DIMENSION
  5
7B
330
1F
100
AcDbEntity
  8
Predefinito
100
AcDbDimension
  2
*D3
 10
3372.215664785063
 20
3625.235147419387
 30
0.0
 11
3182.034638038804
 21
3631.240147419387
 31
0.0
 70
    32
  1
380^M^J
 71
     5
 42
380.3620534925185
  3
Stile di quota 01
100
AcDbAlignedDimension
 13
2991.853611292545
 23
3435.235147419387
 33
0.0
 14
3372.215664785063
 24
3226.833247419386
 34
0.0
100
AcDbRotatedDimension
1001
ACAD
1000
DSTYLE
1002
{
1070
   279
1070
     1
1002
}
  0
DIMENSION
  5
88
330
1F
100
AcDbEntity
  8
Predefinito
100
AcDbDimension
  2
*D4
 10
4020.893609132349
 20
3625.235147419387
 30
0.0
 11
3871.150019512991
 21
3631.420147419386
 31
0.0
 70
    32
  1
ø 300
 71
     5
 42
299.4871792387175
  3
Stile di quota 01
100
AcDbAlignedDimension
 13
3721.406429893632
 23
3226.322480939388
 33
0.0
 14
4020.893609132349
 24
3226.322480939388
 34
0.0
100
AcDbRotatedDimension
1001
ACAD
1000
DSTYLE
1002
{
1070
   279
1070
     1
1002
}
  0
POLYLINE
  5
95
330
1F
100
AcDbEntity
  8
Predefinito
100
AcDb2dPolyline
 66
     1
 10
0.0
 20
0.0
 30
0.0
  0
VERTEX
  5
96
330
95
100
AcDbEntity
  8
Predefinito
100
AcDbVertex
100
AcDb2dVertex
 10
3075.107360962352
 20
1486.0
 30
0.0
  0
VERTEX
  5
97
330
95
100
AcDbEntity
  8
Predefinito
100
AcDbVertex
100
AcDb2dVertex
 10
3075.107360962352
 20
1466.0
 30
0.0
  0
SEQEND
  5
98
330
95
100
AcDbEntity
  8
Predefinito
  0
SPLINE
  5
9A
330
1F
100
AcDbEntity
  8
Linee visibili 2D
100
AcDbSpline
210
0.0
220
0.0
230
1.0
 70
    24
 71
     2
 72
     6
 73
     3
 74
     0
 42
0.0000000001
 43
0.0000000001
 40
0.0
 40
0.0
 40
0.0
 40
0.2500000000144382
 40
0.2500000000144382
 40
0.2500000000144382
 10
3860.650019513006
 20
3225.902405414403
 30
0.0
 10
3860.525019512998
 20
3225.902405414403
 30
0.0
 10
3860.400019512991
 20
3225.902405414403
 30
0.0
  0
SPLINE
  5
9B
330
1F
100
AcDbEntity
  8
Linee visibili 2D
100
AcDbSpline
210
0.0
220
0.0
230
1.0
 70
    24
 71
     2
 72
     6
 73
     3
 74
     0
 42
0.0000000001
 43
0.0000000001
 40
0.0
 40
0.0
 40
0.0
 40
0.2500000004394565
 40
0.2500000004394565
 40
0.2500000004394565
 10
3881.900019513108
 20
3225.902405414403
 30
0.0
 10
3881.775019512888
 20
3225.902405414403
 30
0.0
 10
3881.650019512668
 20
3225.902405414403
 30
0.0
  0
SPLINE
  5
9C
330
1F
100
AcDbEntity
  8
Linee visibili 2D
100
AcDbSpline
210
0.0
220
0.0
230
1.0
 70
    12
 71
     2
 72
     6
 73
     3
 74
     0
 42
0.0000000001
 43
0.0000000001
 40
0.0
 40
0.0
 40
0.0
 40
0.1315761554312228
 40
0.1315761554312228
 40
0.1315761554312228
 10
3871.754385836219
 20
1840.663115335097
 30
0.0
 41
1.0
 10
3871.689912686415
 20
1840.676255323375
 30
0.0
 41
0.9997617745693981
 10
3871.624927503806
 20
1840.686569021975
 30
0.0
 41
1.0
  0
SPLINE
  5
9D
330
1F
100
AcDbEntity
  8
Linee visibili 2D
100
AcDbSpline
210
0.0
220
0.0
230
1.0
 70
    12
 71
     2
 72
     6
 73
     3
 74
     0
 42
0.0000000001
 43
0.0000000001
 40
0.0
 40
0.0
 40
0.0
 40
0.1316868236426775
 40
0.1316868236426775
 40
0.1316868236426775
 10
3870.675258666997
 20
1840.686457099066
 30
0.0
 41
1.0
 10
3870.610239472941
 20
1840.676005422738
 30
0.0
 41
0.999761641251462
 10
3870.545738527996
 20
1840.662725316006
 30
0.0
 41
1.0
  0
SPLINE
  5
9E
330
1F
100
AcDbEntity
  8
Linee visibili 2D
100
AcDbSpline
210
0.0
220
0.0
230
1.0
 70
    24
 71
     2
 72
     6
 73
     3
 74
     0
 42
0.0000000001
 43
0.0000000001
 40
0.0
 40
0.0
 40
0.0
 40
12.0
 40
12.0
 40
12.0
 10
3721.150019512991
 20
1834.724380939388
 30
0.0
 10
3721.150019512991
 20
1840.724380939388
 30
0.0
 10
3721.150019512991
 20
1846.724380939388
 30
0.0
  0
SPLINE
  5
9F
330
1F
100
AcDbEntity
  8
Linee visibili 2D
100
AcDbSpline
210
0.0
220
0.0
230
1.0
 70
    12
 71
     2
 72
     6
 73
     3
 74
     0
 42
0.0000000001
 43
0.0000000001
 40
0.0
 40
0.0
 40
0.0
 40
0.7512492904976928
 40
0.7512492904976928
 40
0.7512492904976928
 10
3861.150019512992
 20
3228.92521486821
 30
0.0
 41
1.0
 10
3860.774545234894
 20
3228.935847315006
 30
0.0
 41
0.9999994242157539
 10
3860.399094641152
 20
3228.947285588337
 30
0.0
 41
1.0
  0
SPLINE
  5
A0
330
1F
100
AcDbEntity
  8
Linee visibili 2D
100
AcDbSpline
210
0.0
220
0.0
230
1.0
 70
    12
 71
     2
 72
     6
 73
     3
 74
     0
 42
0.0000000001
 43
0.0000000001
 40
0.0
 40
0.0
 40
0.0
 40
0.7512492904971685
 40
0.7512492904971685
 40
0.7512492904971685
 10
3881.90094438483
 20
3228.947285588337
 30
0.0
 41
1.0
 10
3881.525493791088
 20
3228.935847315006
 30
0.0
 41
0.9999994242157553
 10
3881.150019512991
 20
3228.92521486821
 30
0.0
 41
1.0
  0
SPLINE
  5
A1
330
1F
100
AcDbEntity
  8
Linee visibili 2D
100
AcDbSpline
210
0.0
220
0.0
230
1.0
 70
    12
 71
     2
 72
     6
 73
     3
 74
     0
 42
0.0000000001
 43
0.0000000001
 40
0.0
 40
0.0
 40
0.0
 40
0.7285521784603863
 40
0.7285521784603863
 40
0.7285521784603863
 10
4020.893609132349
 20
3226.322480939388
 30
0.0
 41
1.0
 10
4020.892552510321
 20
3225.859438276816
 30
0.0
 41
0.7087190355538927
 10
4020.429509849382
 20
3225.858380939389
 30
0.0
 41
1.0
  0
SPLINE
  5
A2
330
1F
100
AcDbEntity
  8
Linee visibili 2D
100
AcDbSpline
210
0.0
220
0.0
230
1.0
 70
    12
 71
     2
 72
     6
 73
     3
 74
     0
 42
0.0000000001
 43
0.0000000001
 40
0.0
 40
0.0
 40
0.0
 40
0.7283789580788729
 40
0.7283789580788729
 40
0.7283789580788729
 10
3721.870529176599
 20
3225.858380939389
 30
0.0
 41
1.0
 10
3721.407889735903
 20
3225.859841496436
 30
0.0
 41
0.7093350445440768
 10
3721.406429893632
 20
3226.322480939388
 30
0.0
 41
1.0
  0
SPLINE
  5
A3
330
1F
100
AcDbEntity
  8
Linee visibili 2D
100
AcDbSpline
210
0.0
220
0.0
230
1.0
 70
    12
 71
     2
 72
     6
 73
     3
 74
     0
 42
0.0000000001
 43
0.0000000001
 40
0.0
 40
0.0
 40
0.0
 40
0.9463606157921042
 40
0.9463606157921042
 40
0.9463606157921042
 10
3945.12523602879
 20
3434.703380939388
 30
0.0
 41
1.0
 10
3945.667168211367
 20
3434.701783809108
 30
0.0
 41
0.8201236823065545
 10
3945.852747344479
 20
3434.19261445939
 30
0.0
 41
1.0
  0
SPLINE
  5
A4
330
1F
100
AcDbEntity
  8
Linee visibili 2D
100
AcDbSpline
210
0.0
220
0.0
230
1.0
 70
    12
 71
     2
 72
     6
 73
     3
 74
     0
 42
0.0000000001
 43
0.0000000001
 40
0.0
 40
0.0
 40
0.0
 40
0.9463574366186666
 40
0.9463574366186666
 40
0.9463574366186666
 10
3796.447291681502
 20
3434.19261445939
 30
0.0
 41
1.0
 10
3796.632876939227
 20
3434.701775085503
 30
0.0
 41
0.8201329118924889
 10
3797.174802997192
 20
3434.703380939388
 30
0.0
 41
1.0
  0
SPLINE
  5
A5
330
1F
100
AcDbEntity
  8
Linee visibili 2D
100
AcDbSpline
210
0.0
220
0.0
230
1.0
 70
    24
 71
     2
 72
     6
 73
     3
 74
     0
 42
0.0000000001
 43
0.0000000001
 40
0.0
 40
0.0
 40
0.0
 40
0.1676050270082169
 40
0.1676050270082169
 40
0.1676050270082169
 10
4017.576434952583
 20
3226.480121051389
 30
0.0
 10
4017.604900019626
 20
3226.401300995389
 30
0.0
 10
4017.633365086669
 20
3226.322480939389
 30
0.0
  0
SPLINE
  5
A6
330
1F
100
AcDbEntity
  8
Linee visibili 2D
100
AcDbSpline
210
0.0
220
0.0
230
1.0
 70
    24
 71
     2
 72
     6
 73
     3
 74
     0
 42
0.0000000001
 43
0.0000000001
 40
0.0
 40
0.0
 40
0.0
 40
0.1676050270097146
 40
0.1676050270097146
 40
0.1676050270097146
 10
3724.666673939313
 20
3226.322480939389
 30
0.0
 10
3724.695139006357
 20
3226.40130099539
 30
0.0
 10
3724.7236040734
 20
3226.48012105139
 30
0.0
  0
SPLINE
  5
A7
330
1F
100
AcDbEntity
  8
Linee visibili 2D
100
AcDbSpline
210
0.0
220
0.0
230
1.0
 70
    24
 71
     2
 72
     6
 73
     3
 74
     0
 42
0.0000000001
 43
0.0000000001
 40
0.0
 40
0.0
 40
0.0
 40
220.8410754246343
 40
220.8410754246343
 40
220.8410754246343
 10
3945.852747344479
 20
3434.19261445939
 30
0.0
 10
3983.359116515323
 20
3330.337102230632
 30
0.0
 10
4020.865485686166
 20
3226.481590001874
 30
0.0
  0
SPLINE
  5
A8
330
1F
100
AcDbEntity
  8
Linee visibili 2D
100
AcDbSpline
210
0.0
220
0.0
230
1.0
 70
    24
 71
     2
 72
     6
 73
     3
 74
     0
 42
0.0000000001
 43
0.0000000001
 40
0.0
 40
0.0
 40
0.0
 40
220.8375526794273
 40
220.8375526794273
 40
220.8375526794273
 10
3721.435749905102
 20
3226.484903303145
 30
0.0
 10
3758.941520793302
 20
3330.338758881267
 30
0.0
 10
3796.447291681502
 20
3434.19261445939
 30
0.0
  0
SPLINE
  5
AA
330
1F
100
AcDbEntity
  8
Linee visibili 2D - Tangent
100
AcDbSpline
210
0.0
220
0.0
230
1.0
 70
    24
 71
     2
 72
     6
 73
     3
 74
     0
 42
0.0000000001
 43
0.0000000001
 40
0.0
 40
0.0
 40
0.0
 40
0.2502171122640959
 40
0.2502171122640959
 40
0.2502171122640959
 10
3881.900236625255
 20
3226.366505414403
 30
0.0
 10
3881.775128069123
 20
3226.366505414403
 30
0.0
 10
3881.650019512991
 20
3226.366505414403
 30
0.0
  0
SPLINE
  5
AB
330
1F
100
AcDbEntity
  8
Linee visibili 2D - Tangent
100
AcDbSpline
210
0.0
220
0.0
230
1.0
 70
    24
 71
     2
 72
     6
 73
     3
 74
     0
 42
0.0000000001
 43
0.0000000001
 40
0.0
 40
0.0
 40
0.0
 40
0.2611216989248533
 40
0.2611216989248533
 40
0.2611216989248533
 10
3860.65001951016
 20
3226.366505414403
 30
0.0
 10
3860.519458660697
 20
3226.366505414403
 30
0.0
 10
3860.388897811235
 20
3226.366505414403
 30
0.0
  0
SPLINE
  5
AC
330
1F
100
AcDbEntity
  8
Linee visibili 2D - Tangent
100
AcDbSpline
210
0.0
220
0.0
230
1.0
 70
    24
 71
     2
 72
     6
 73
     3
 74
     0
 42
0.0000000001
 43
0.0000000001
 40
0.0
 40
0.0
 40
0.0
 40
0.249999978921096
 40
0.249999978921096
 40
0.249999978921096
 10
3881.650019512991
 20
3226.52523696292
 30
0.0
 10
3881.775019502452
 20
3226.52523696292
 30
0.0
 10
3881.900019491913
 20
3226.52523696292
 30
0.0
  0
SPLINE
  5
AD
330
1F
100
AcDbEntity
  8
Linee visibili 2D - Tangent
100
AcDbSpline
210
0.0
220
0.0
230
1.0
 70
    24
 71
     2
 72
     6
 73
     3
 74
     0
 42
0.0000000001
 43
0.0000000001
 40
0.0
 40
0.0
 40
0.0
 40
0.2499999699165016
 40
0.2499999699165016
 40
0.2499999699165016
 10
3860.400019540189
 20
3226.52523696292
 30
0.0
 10
3860.525019525146
 20
3226.525236962921
 30
0.0
 10
3860.650019510105
 20
3226.525236962921
 30
0.0
  0
SPLINE
  5
AE
330
1F
100
AcDbEntity
  8
Linee visibili 2D
100
AcDbSpline
210
0.0
220
0.0
230
1.0
 70
    28
 71
     2
 72
     8
 73
     5
 74
     0
 42
0.0000000001
 43
0.0000000001
 40
700.0250497398204
 40
700.0250497398204
 40
700.0250497398204
 40
760.5128592494973
 40
760.5128592494973
 40
936.477396004921
 40
936.477396004921
 40
936.477396004921
 10
3721.1820585444
 20
1834.724380939388
 30
0.0
 41
0.9245893418234865
 10
3720.556269996997
 20
1834.724380939388
 30
0.0
 41
0.9425442604369421
 10
3731.722619049524
 20
1834.724380939388
 30
0.0
 41
1.0
 10
3768.484718972279
 20
1834.724380939388
 30
0.0
 41
0.8328560303620133
 10
3868.150019512991
 20
1834.724380939388
 30
0.0
 41
1.0
  0
SPLINE
  5
AF
330
1F
100
AcDbEntity
  8
Linee visibili 2D
100
AcDbSpline
210
0.0
220
0.0
230
1.0
 70
    24
 71
     2
 72
     6
 73
     3
 74
     0
 42
0.0000000001
 43
0.0000000001
 40
0.0
 40
0.0
 40
0.0
 40
12.0
 40
12.0
 40
12.0
 10
4021.150019512991
 20
1834.724380939388
 30
0.0
 10
4021.150019512991
 20
1840.724380939388
 30
0.0
 10
4021.150019512991
 20
1846.724380939388
 30
0.0
  0
SPLINE
  5
B0
330
1F
100
AcDbEntity
  8
Linee visibili 2D
100
AcDbSpline
210
0.0
220
0.0
230
1.0
 70
    24
 71
     2
 72
     6
 73
     3
 74
     0
 42
0.0000000001
 43
0.0000000001
 40
0.0
 40
0.0
 40
0.0
 40
146.9637929429083
 40
146.9637929429083
 40
146.9637929429083
 10
3874.150019512991
 20
1834.724380939388
 30
0.0
 10
3947.631915984445
 20
1834.724380939388
 30
0.0
 10
4021.113812455899
 20
1834.724380939388
 30
0.0
  0
SPLINE
  5
B1
330
1F
100
AcDbEntity
  8
Linee visibili 2D
100
AcDbSpline
210
0.0
220
0.0
230
1.0
 70
    24
 71
     2
 72
     6
 73
     3
 74
     0
 42
0.0000000001
 43
0.0000000001
 40
0.0
 40
0.0
 40
0.0
 40
3.0
 40
3.0
 40
3.0
 10
3874.150019512991
 20
1837.724380939388
 30
0.0
 10
3874.150019512991
 20
1836.224380939388
 30
0.0
 10
3874.150019512991
 20
1834.724380939388
 30
0.0
  0
SPLINE
  5
B2
330
1F
100
AcDbEntity
  8
Linee visibili 2D
100
AcDbSpline
210
0.0
220
0.0
230
1.0
 70
    12
 71
     2
 72
     8
 73
     5
 74
     0
 42
0.0000000001
 43
0.0000000001
 40
0.0
 40
0.0
 40
0.0
 40
4.712388980384592
 40
4.712388980384592
 40
9.424777960769184
 40
9.424777960769184
 40
9.424777960769184
 10
3868.150019512991
 20
1837.724380939388
 30
0.0
 41
1.0
 10
3868.150019512991
 20
1840.724380939388
 30
0.0
 41
0.707106781186559
 10
3871.150019512991
 20
1840.724380939388
 30
0.0
 41
1.0
 10
3874.150019512991
 20
1840.724380939388
 30
0.0
 41
0.707106781186559
 10
3874.150019512991
 20
1837.724380939388
 30
0.0
 41
1.0
  0
SPLINE
  5
B3
330
1F
100
AcDbEntity
  8
Linee visibili 2D
100
AcDbSpline
210
0.0
220
0.0
230
1.0
 70
    24
 71
     2
 72
     6
 73
     3
 74
     0
 42
0.0000000001
 43
0.0000000001
 40
0.0
 40
0.0
 40
0.0
 40
3.0
 40
3.0
 40
3.0
 10
3868.150019512991
 20
1834.724380939388
 30
0.0
 10
3868.150019512991
 20
1836.224380939388
 30
0.0
 10
3868.150019512991
 20
1837.724380939388
 30
0.0
  0
SPLINE
  5
B4
330
1F
100
AcDbEntity
  8
Linee visibili 2D
100
AcDbSpline
210
0.0
220
0.0
230
1.0
 70
    24
 71
     2
 72
     6
 73
     3
 74
     0
 42
0.0000000001
 43
0.0000000001
 40
0.0
 40
0.0
 40
0.0
 40
5.999999998240781
 40
5.999999998240781
 40
5.999999998240781
 10
3874.150019512112
 20
1834.724380939388
 30
0.0
 10
3871.150019512991
 20
1834.724380939388
 30
0.0
 10
3868.150019513871
 20
1834.724380939388
 30
0.0
  0
SPLINE
  5
B5
330
1F
100
AcDbEntity
  8
Linee visibili 2D
100
AcDbSpline
210
0.0
220
0.0
230
1.0
 70
    24
 71
     2
 72
     6
 73
     3
 74
     0
 42
0.0000000001
 43
0.0000000001
 40
0.0
 40
0.0
 40
0.0
 40
299.9630459540348
 40
299.9630459540348
 40
299.9630459540348
 10
3721.150019512991
 20
1846.724380939388
 30
0.0
 10
3871.131542490009
 20
1846.724380939388
 30
0.0
 10
4021.113065467026
 20
1846.724380939388
 30
0.0
  0
SPLINE
  5
B6
330
1F
100
AcDbEntity
  8
Linee visibili 2D
100
AcDbSpline
210
0.0
220
0.0
230
1.0
 70
    24
 71
     2
 72
     6
 73
     3
 74
     0
 42
0.0000000001
 43
0.0000000001
 40
0.0
 40
0.0
 40
0.0
 40
20.0
 40
20.0
 40
20.0
 10
3881.150019512991
 20
2814.842746035845
 30
0.0
 10
3871.150019512991
 20
2814.842746035845
 30
0.0
 10
3861.150019512991
 20
2814.842746035846
 30
0.0
  0
SPLINE
  5
B7
330
1F
100
AcDbEntity
  8
Linee visibili 2D
100
AcDbSpline
210
0.0
220
0.0
230
1.0
 70
    24
 71
     2
 72
     6
 73
     3
 74
     0
 42
0.0000000001
 43
0.0000000001
 40
0.0
 40
0.0
 40
0.0
 40
968.1183650964567
 40
968.1183650964567
 40
968.1183650964567
 10
3881.150019512991
 20
2814.842746035845
 30
0.0
 10
3881.150019512991
 20
2330.783563487616
 30
0.0
 10
3881.150019512991
 20
1846.724380939388
 30
0.0
  0
SPLINE
  5
B8
330
1F
100
AcDbEntity
  8
Linee visibili 2D
100
AcDbSpline
210
0.0
220
0.0
230
1.0
 70
    24
 71
     2
 72
     6
 73
     3
 74
     0
 42
0.0000000001
 43
0.0000000001
 40
0.0
 40
0.0
 40
0.0
 40
619.8606349035431
 40
619.8606349035431
 40
619.8606349035431
 10
3881.150019512991
 20
3434.703380939388
 30
0.0
 10
3881.150019512991
 20
3124.773063487616
 30
0.0
 10
3881.150019512991
 20
2814.842746035845
 30
0.0
  0
SPLINE
  5
B9
330
1F
100
AcDbEntity
  8
Linee visibili 2D
100
AcDbSpline
210
0.0
220
0.0
230
1.0
 70
    24
 71
     2
 72
     6
 73
     3
 74
     0
 42
0.0000000001
 43
0.0000000001
 40
0.0
 40
0.0
 40
0.0
 40
968.1183650964576
 40
968.1183650964576
 40
968.1183650964576
 10
3861.150019512991
 20
1846.724380939388
 30
0.0
 10
3861.150019512991
 20
2330.783563487617
 30
0.0
 10
3861.150019512991
 20
2814.842746035846
 30
0.0
  0
SPLINE
  5
BA
330
1F
100
AcDbEntity
  8
Linee visibili 2D
100
AcDbSpline
210
0.0
220
0.0
230
1.0
 70
    24
 71
     2
 72
     6
 73
     3
 74
     0
 42
0.0000000001
 43
0.0000000001
 40
0.0
 40
0.0
 40
0.0
 40
619.8606349035422
 40
619.8606349035422
 40
619.8606349035422
 10
3861.150019512991
 20
2814.842746035846
 30
0.0
 10
3861.150019512991
 20
3124.773063487617
 30
0.0
 10
3861.150019512991
 20
3434.703380939388
 30
0.0
  0
SPLINE
  5
BB
330
1F
100
AcDbEntity
  8
Linee visibili 2D
100
AcDbSpline
210
0.0
220
0.0
230
1.0
 70
    24
 71
     2
 72
     6
 73
     3
 74
     0
 42
0.0000000001
 43
0.0000000001
 40
0.0
 40
0.0
 40
0.0
 40
20.0
 40
20.0
 40
20.0
 10
3861.150019512991
 20
3434.724380939388
 30
0.0
 10
3871.150019512991
 20
3434.724380939388
 30
0.0
 10
3881.150019512991
 20
3434.724380939388
 30
0.0
  0
SPLINE
  5
BC
330
1F
100
AcDbEntity
  8
Linee visibili 2D
100
AcDbSpline
210
0.0
220
0.0
230
1.0
 70
    24
 71
     2
 72
     6
 73
     3
 74
     0
 42
0.0000000001
 43
0.0000000001
 40
0.0
 40
0.0
 40
0.0
 40
0.3022346899824697
 40
0.3022346899824697
 40
0.3022346899824697
 10
3881.650019512991
 20
3228.637496400891
 30
0.0
 10
3881.650019512991
 20
3228.788613745882
 30
0.0
 10
3881.650019512991
 20
3228.939731090873
 30
0.0
  0
SPLINE
  5
BD
330
1F
100
AcDbEntity
  8
Linee visibili 2D - Tangent
100
AcDbSpline
210
0.0
220
0.0
230
1.0
 70
    24
 71
     2
 72
     6
 73
     3
 74
     0
 42
0.0000000001
 43
0.0000000001
 40
0.0
 40
0.0
 40
0.0
 40
0.500000000000199
 40
0.500000000000199
 40
0.500000000000199
 10
3881.650019512991
 20
3228.637496400891
 30
0.0
 10
3881.400019512991
 20
3228.637496400891
 30
0.0
 10
3881.150019512991
 20
3228.637496400891
 30
0.0
  0
SPLINE
  5
BE
330
1F
100
AcDbEntity
  8
Linee visibili 2D
100
AcDbSpline
210
0.0
220
0.0
230
1.0
 70
    24
 71
     2
 72
     6
 73
     3
 74
     0
 42
0.0000000001
 43
0.0000000001
 40
0.0
 40
0.0
 40
0.0
 40
5.669816169724072
 40
5.669816169724072
 40
5.669816169724072
 10
3881.650019512991
 20
3222.967680231167
 30
0.0
 10
3881.650019512991
 20
3225.802588316029
 30
0.0
 10
3881.650019512991
 20
3228.637496400891
 30
0.0
  0
SPLINE
  5
BF
330
1F
100
AcDbEntity
  8
Linee visibili 2D
100
AcDbSpline
210
0.0
220
0.0
230
1.0
 70
    24
 71
     2
 72
     6
 73
     3
 74
     0
 42
0.0000000001
 43
0.0000000001
 40
0.0
 40
0.0
 40
0.0
 40
0.5000000000001137
 40
0.5000000000001137
 40
0.5000000000001137
 10
3881.650019512991
 20
3222.967680231167
 30
0.0
 10
3881.400019512991
 20
3222.967680231167
 30
0.0
 10
3881.150019512991
 20
3222.967680231167
 30
0.0
  0
SPLINE
  5
C0
330
1F
100
AcDbEntity
  8
Linee visibili 2D
100
AcDbSpline
210
0.0
220
0.0
230
1.0
 70
    24
 71
     2
 72
     6
 73
     3
 74
     0
 42
0.0000000001
 43
0.0000000001
 40
0.0
 40
0.0
 40
0.0
 40
1.026060429976951
 40
1.026060429976951
 40
1.026060429976951
 10
3881.650019512991
 20
3221.94161980119
 30
0.0
 10
3881.650019512991
 20
3222.454650016179
 30
0.0
 10
3881.650019512991
 20
3222.967680231167
 30
0.0
  0
SPLINE
  5
C1
330
1F
100
AcDbEntity
  8
Linee visibili 2D
100
AcDbSpline
210
0.0
220
0.0
230
1.0
 70
    24
 71
     2
 72
     6
 73
     3
 74
     0
 42
0.0000000001
 43
0.0000000001
 40
0.0
 40
0.0
 40
0.0
 40
0.5000000000003695
 40
0.5000000000003695
 40
0.5000000000003695
 10
3881.150019512991
 20
3221.94161980119
 30
0.0
 10
3881.400019512991
 20
3221.94161980119
 30
0.0
 10
3881.650019512991
 20
3221.94161980119
 30
0.0
  0
SPLINE
  5
C2
330
1F
100
AcDbEntity
  8
Linee visibili 2D
100
AcDbSpline
210
0.0
220
0.0
230
1.0
 70
    24
 71
     2
 72
     6
 73
     3
 74
     0
 42
0.0000000001
 43
0.0000000001
 40
0.0
 40
0.0
 40
0.0
 40
0.3022346899822423
 40
0.3022346899822423
 40
0.3022346899822423
 10
3860.650019512991
 20
3228.637496400891
 30
0.0
 10
3860.650019512991
 20
3228.788613745882
 30
0.0
 10
3860.650019512991
 20
3228.939731090873
 30
0.0
  0
SPLINE
  5
C3
330
1F
100
AcDbEntity
  8
Linee visibili 2D
100
AcDbSpline
210
0.0
220
0.0
230
1.0
 70
    24
 71
     2
 72
     6
 73
     3
 74
     0
 42
0.0000000001
 43
0.0000000001
 40
0.0
 40
0.0
 40
0.0
 40
5.669816169724072
 40
5.669816169724072
 40
5.669816169724072
 10
3860.650019512991
 20
3228.637496400891
 30
0.0
 10
3860.650019512991
 20
3225.802588316029
 30
0.0
 10
3860.650019512991
 20
3222.967680231167
 30
0.0
  0
SPLINE
  5
C4
330
1F
100
AcDbEntity
  8
Linee visibili 2D - Tangent
100
AcDbSpline
210
0.0
220
0.0
230
1.0
 70
    24
 71
     2
 72
     6
 73
     3
 74
     0
 42
0.0000000001
 43
0.0000000001
 40
0.0
 40
0.0
 40
0.0
 40
0.4999999999996305
 40
0.4999999999996305
 40
0.4999999999996305
 10
3861.150019512991
 20
3228.637496400891
 30
0.0
 10
3860.900019512991
 20
3228.637496400891
 30
0.0
 10
3860.650019512991
 20
3228.637496400891
 30
0.0
  0
SPLINE
  5
C5
330
1F
100
AcDbEntity
  8
Linee visibili 2D
100
AcDbSpline
210
0.0
220
0.0
230
1.0
 70
    24
 71
     2
 72
     6
 73
     3
 74
     0
 42
0.0000000001
 43
0.0000000001
 40
0.0
 40
0.0
 40
0.0
 40
0.5000000000000568
 40
0.5000000000000568
 40
0.5000000000000568
 10
3861.150019512991
 20
3222.967680231167
 30
0.0
 10
3860.900019512991
 20
3222.967680231167
 30
0.0
 10
3860.650019512991
 20
3222.967680231167
 30
0.0
  0
SPLINE
  5
C6
330
1F
100
AcDbEntity
  8
Linee visibili 2D
100
AcDbSpline
210
0.0
220
0.0
230
1.0
 70
    24
 71
     2
 72
     6
 73
     3
 74
     0
 42
0.0000000001
 43
0.0000000001
 40
0.0
 40
0.0
 40
0.0
 40
0.4999999999996305
 40
0.4999999999996305
 40
0.4999999999996305
 10
3860.650019512991
 20
3221.94161980119
 30
0.0
 10
3860.900019512991
 20
3221.94161980119
 30
0.0
 10
3861.150019512991
 20
3221.94161980119
 30
0.0
  0
SPLINE
  5
C7
330
1F
100
AcDbEntity
  8
Linee visibili 2D
100
AcDbSpline
210
0.0
220
0.0
230
1.0
 70
    24
 71
     2
 72
     6
 73
     3
 74
     0
 42
0.0000000001
 43
0.0000000001
 40
0.0
 40
0.0
 40
0.0
 40
1.026060429976951
 40
1.026060429976951
 40
1.026060429976951
 10
3860.650019512991
 20
3222.967680231167
 30
0.0
 10
3860.650019512991
 20
3222.454650016179
 30
0.0
 10
3860.650019512991
 20
3221.94161980119
 30
0.0
  0
SPLINE
  5
C8
330
1F
100
AcDbEntity
  8
Linee visibili 2D
100
AcDbSpline
210
0.0
220
0.0
230
1.0
 70
    12
 71
     2
 72
     8
 73
     5
 74
     0
 42
0.0000000001
 43
0.0000000001
 40
0.0
 40
0.0
 40
0.0
 40
0.0525204200957378
 40
0.0525204200957378
 40
0.1576401298988334
 40
0.1576401298988334
 40
0.1576401298988334
 10
3881.90001951299
 20
3226.48012105139
 30
0.0
 41
1.0
 10
3881.900094136812
 20
3226.453860947364
 30
0.0
 41
0.9999999995459002
 10
3881.900167177865
 20
3226.427600838888
 30
0.0
 41
1.0
 10
3881.900313319441
 20
3226.375041187107
 30
0.0
 41
0.9999999985387301
 10
3881.90045377821
 20
3226.322481519833
 30
0.0
 41
1.0
  0
SPLINE
  5
C9
330
1F
100
AcDbEntity
  8
Linee visibili 2D
100
AcDbSpline
210
0.0
220
0.0
230
1.0
 70
    12
 71
     2
 72
     8
 73
     5
 74
     0
 42
0.0000000001
 43
0.0000000001
 40
0.0
 40
0.0
 40
0.0
 40
0.0469068294396221
 40
0.0469068294396221
 40
0.1581464485590418
 40
0.1581464485590418
 40
0.1581464485590418
 10
3860.383346333064
 20
3226.322856246677
 30
0.0
 41
1.0
 10
3860.385745762292
 20
3226.346186606828
 30
0.0
 41
0.9999995863456888
 10
3860.388187628489
 20
3226.369512563504
 30
0.0
 41
1.0
 10
3860.39397649065
 20
3226.424830401313
 30
0.0
 41
0.9999973599850133
 10
3860.400019512991
 20
3226.480121051389
 30
0.0
 41
1.0
  0
SPLINE
  5
CA
330
1F
100
AcDbEntity
  8
Linee visibili 2D
100
AcDbSpline
210
0.0
220
0.0
230
1.0
 70
    12
 71
     2
 72
     6
 73
     3
 74
     0
 42
0.0000000001
 43
0.0000000001
 40
0.0
 40
0.0
 40
0.0
 40
0.4641001432266078
 40
0.4641001432266078
 40
0.4641001432266078
 10
3881.900453779704
 20
3226.322480827027
 30
0.0
 41
1.0
 10
3881.900427660825
 20
3226.090430704472
 30
0.0
 41
0.9999996612031108
 10
3881.900019512991
 20
3225.858380939388
 30
0.0
 41
1.0
  0
SPLINE
  5
CB
330
1F
100
AcDbEntity
  8
Linee visibili 2D
100
AcDbSpline
210
0.0
220
0.0
230
1.0
 70
    28
 71
     2
 72
     6
 73
     3
 74
     0
 42
0.0000000001
 43
0.0000000001
 40
701.6676552859885
 40
701.6676552859885
 40
701.6676552859885
 40
927.2080836082362
 40
927.2080836082362
 40
927.2080836082362
 10
3721.42156490448
 20
3226.322480939388
 30
0.0
 41
0.9913776010362524
 10
3719.41211513224
 20
3226.322480939388
 30
0.0
 41
0.7240832331600706
 10
3860.383307734562
 20
3226.322480939388
 30
0.0
 41
1.0
  0
SPLINE
  5
CC
330
1F
100
AcDbEntity
  8
Linee visibili 2D
100
AcDbSpline
210
0.0
220
0.0
230
1.0
 70
    24
 71
     2
 72
     6
 73
     3
 74
     0
 42
0.0000000001
 43
0.0000000001
 40
0.0
 40
0.0
 40
0.0
 40
138.9885189402931
 40
138.9885189402931
 40
138.9885189402931
 10
3881.900453779762
 20
3226.322480939388
 30
0.0
 10
3951.394713249908
 20
3226.322480939388
 30
0.0
 10
4020.888972720055
 20
3226.322480939388
 30
0.0
  0
SPLINE
  5
CD
330
1F
100
AcDbEntity
  8
Linee visibili 2D
100
AcDbSpline
210
0.0
220
0.0
230
1.0
 70
    12
 71
     2
 72
     6
 73
     3
 74
     0
 42
0.0000000001
 43
0.0000000001
 40
0.0
 40
0.0
 40
0.0
 40
0.4651078648397398
 40
0.4651078648397398
 40
0.4651078648397398
 10
3860.400019512991
 20
3225.858380939388
 30
0.0
 41
1.0
 10
3860.368387239453
 20
3226.089558820738
 30
0.0
 41
0.9950057245319112
 10
3860.383306186098
 20
3226.322413364576
 30
0.0
 41
1.0
  0
SPLINE
  5
CE
330
1F
100
AcDbEntity
  8
Linee visibili 2D
100
AcDbSpline
210
0.0
220
0.0
230
1.0
 70
    24
 71
     2
 72
     6
 73
     3
 74
     0
 42
0.0000000001
 43
0.0000000001
 40
0.0
 40
0.0
 40
0.0
 40
63.93712015288256
 40
63.93712015288256
 40
63.93712015288256
 10
3945.125235593738
 20
3434.703380939388
 30
0.0
 10
3913.156675517296
 20
3434.703380939388
 30
0.0
 10
3881.188115440855
 20
3434.703380939388
 30
0.0
  0
SPLINE
  5
CF
330
1F
100
AcDbEntity
  8
Linee visibili 2D
100
AcDbSpline
210
0.0
220
0.0
230
1.0
 70
    24
 71
     2
 72
     6
 73
     3
 74
     0
 42
0.0000000001
 43
0.0000000001
 40
0.0
 40
0.0
 40
0.0
 40
63.93712015288244
 40
63.93712015288244
 40
63.93712015288244
 10
3861.111923585127
 20
3434.703380939388
 30
0.0
 10
3829.143363508686
 20
3434.703380939388
 30
0.0
 10
3797.174803432245
 20
3434.703380939388
 30
0.0
  0
SPLINE
  5
D0
330
1F
100
AcDbEntity
  8
Linee visibili 2D
100
AcDbSpline
210
0.0
220
0.0
230
1.0
 70
    28
 71
     2
 72
     6
 73
     3
 74
     0
 42
0.0000000001
 43
0.0000000001
 40
692.9716516252859
 40
692.9716516252859
 40
692.9716516252859
 40
919.1748332439024
 40
919.1748332439024
 40
919.1748332439024
 10
3721.448992008155
 20
3226.48012105139
 30
0.0
 41
0.9913773653864604
 10
3719.450722021074
 20
3226.480121051389
 30
0.0
 41
0.724075692366736
 10
3860.400019512991
 20
3226.480121051389
 30
0.0
 41
1.0
  0
SPLINE
  5
D1
330
1F
100
AcDbEntity
  8
Linee visibili 2D - Tangent
100
AcDbSpline
210
0.0
220
0.0
230
1.0
 70
    24
 71
     2
 72
     6
 73
     3
 74
     0
 42
0.0000000001
 43
0.0000000001
 40
0.0
 40
0.0
 40
0.0
 40
64.70272783148835
 40
64.70272783148835
 40
64.70272783148835
 10
3861.15001951299
 20
3434.19261445939
 30
0.0
 10
3828.798655597246
 20
3434.19261445939
 30
0.0
 10
3796.447291681502
 20
3434.19261445939
 30
0.0
  0
SPLINE
  5
D2
330
1F
100
AcDbEntity
  8
Linee visibili 2D - Tangent
100
AcDbSpline
210
0.0
220
0.0
230
1.0
 70
    24
 71
     2
 72
     6
 73
     3
 74
     0
 42
0.0000000001
 43
0.0000000001
 40
0.0
 40
0.0
 40
0.0
 40
64.7027278314875
 40
64.7027278314875
 40
64.7027278314875
 10
3945.852747344479
 20
3434.19261445939
 30
0.0
 10
3913.501383428736
 20
3434.19261445939
 30
0.0
 10
3881.150019512992
 20
3434.19261445939
 30
0.0
  0
SPLINE
  5
D3
330
1F
100
AcDbEntity
  8
Linee visibili 2D
100
AcDbSpline
210
0.0
220
0.0
230
1.0
 70
    24
 71
     2
 72
     6
 73
     3
 74
     0
 42
0.0000000001
 43
0.0000000001
 40
0.0
 40
0.0
 40
0.0
 40
138.9613986345555
 40
138.9613986345555
 40
138.9613986345555
 10
3881.90001951299
 20
3226.48012105139
 30
0.0
 10
3951.380718830268
 20
3226.48012105139
 30
0.0
 10
4020.861418147546
 20
3226.48012105139
 30
0.0
  0
SPLINE
  5
D4
330
1F
100
AcDbEntity
  8
Linee visibili 2D
100
AcDbSpline
210
0.0
220
0.0
230
1.0
 70
    24
 71
     2
 72
     6
 73
     3
 74
     0
 42
0.0000000001
 43
0.0000000001
 40
0.0
 40
0.0
 40
0.0
 40
3.136166456023602
 40
3.136166456023602
 40
3.136166456023602
 10
3881.900019508765
 20
3229.616287507414
 30
0.0
 10
3881.900019510877
 20
3228.048204279402
 30
0.0
 10
3881.90001951299
 20
3226.48012105139
 30
0.0
  0
SPLINE
  5
D5
330
1F
100
AcDbEntity
  8
Linee visibili 2D - Tangent
100
AcDbSpline
210
0.0
220
0.0
230
1.0
 70
    12
 71
     2
 72
     6
 73
     3
 74
     0
 42
0.0000000001
 43
0.0000000001
 40
0.0
 40
0.0
 40
0.0
 40
0.7503208608103684
 40
0.7503208608103684
 40
0.7503208608103684
 10
3881.150019512992
 20
3229.594351513932
 30
0.0
 41
1.0
 10
3881.525031187654
 20
3229.604920277252
 30
0.0
 41
0.9999994332899894
 10
3881.900019508765
 20
3229.616287507414
 30
0.0
 41
1.0
  0
SPLINE
  5
D6
330
1F
100
AcDbEntity
  8
Linee visibili 2D - Tangent
100
AcDbSpline
210
0.0
220
0.0
230
1.0
 70
    12
 71
     2
 72
     6
 73
     3
 74
     0
 42
0.0000000001
 43
0.0000000001
 40
0.0
 40
0.0
 40
0.0
 40
0.7503208608107488
 40
0.7503208608107488
 40
0.7503208608107488
 10
3860.400019517218
 20
3229.616287507429
 30
0.0
 41
1.0
 10
3860.775007838329
 20
3229.604920277267
 30
0.0
 41
0.9999994332899907
 10
3861.150019512992
 20
3229.594351513946
 30
0.0
 41
1.0
  0
SPLINE
  5
D7
330
1F
100
AcDbEntity
  8
Linee visibili 2D
100
AcDbSpline
210
0.0
220
0.0
230
1.0
 70
    24
 71
     2
 72
     6
 73
     3
 74
     0
 42
0.0000000001
 43
0.0000000001
 40
0.0
 40
0.0
 40
0.0
 40
3.136166456039973
 40
3.136166456039973
 40
3.136166456039973
 10
3860.400019512991
 20
3226.480121051389
 30
0.0
 10
3860.400019515105
 20
3228.048204279409
 30
0.0
 10
3860.400019517218
 20
3229.616287507429
 30
0.0
  0
SPLINE
  5
D8
330
1F
100
AcDbEntity
  8
Linee visibili 2D
100
AcDbSpline
210
0.0
220
0.0
230
1.0
 70
    28
 71
     2
 72
     6
 73
     3
 74
     0
 42
0.0000000001
 43
0.0000000001
 40
-225.5282046904329
 40
-225.5282046904329
 40
-225.5282046904329
 40
0.0
 40
0.0
 40
0.0
 10
3721.885680971731
 20
3225.858380939388
 30
0.0
 41
0.9913784893090057
 10
3719.878448441986
 20
3225.858380939388
 30
0.0
 41
0.7241116578881843
 10
3860.400019512991
 20
3225.858380939388
 30
0.0
 41
1.0
  0
SPLINE
  5
D9
330
1F
100
AcDbEntity
  8
Linee visibili 2D
100
AcDbSpline
210
0.0
220
0.0
230
1.0
 70
    24
 71
     2
 72
     6
 73
     3
 74
     0
 42
0.0000000001
 43
0.0000000001
 40
0.0
 40
0.0
 40
0.0
 40
138.5250301137007
 40
138.5250301137007
 40
138.5250301137007
 10
3881.900019512991
 20
3225.858380939388
 30
0.0
 10
3951.162534569841
 20
3225.858380939389
 30
0.0
 10
4020.425049626691
 20
3225.858380939389
 30
0.0
  0
SPLINE
  5
DA
330
1F
100
AcDbEntity
  8
Linee visibili 2D
100
AcDbSpline
210
0.0
220
0.0
230
1.0
 70
    24
 71
     2
 72
     6
 73
     3
 74
     0
 42
0.0000000001
 43
0.0000000001
 40
0.0
 40
0.0
 40
0.0
 40
0.6445510434356265
 40
0.6445510434356265
 40
0.6445510434356265
 10
3154.17836942352
 20
1456.000000000001
 30
0.0
 10
3153.856093901802
 20
1456.000000000001
 30
0.0
 10
3153.533818380084
 20
1456.000000000001
 30
0.0
  0
SPLINE
  5
DB
330
1F
100
AcDbEntity
  8
Linee visibili 2D
100
AcDbSpline
210
0.0
220
0.0
230
1.0
 70
    24
 71
     2
 72
     6
 73
     3
 74
     0
 42
0.0000000001
 43
0.0000000001
 40
0.0
 40
0.0
 40
0.0
 40
0.6445510434356265
 40
0.6445510434356265
 40
0.6445510434356265
 10
3153.533818380084
 20
1495.999999999999
 30
0.0
 10
3153.856093901802
 20
1495.999999999999
 30
0.0
 10
3154.17836942352
 20
1495.999999999999
 30
0.0
  0
SPLINE
  5
DC
330
1F
100
AcDbEntity
  8
Linee visibili 2D
100
AcDbSpline
210
0.0
220
0.0
230
1.0
 70
    12
 71
     2
 72
     8
 73
     5
 74
     0
 42
0.0000000001
 43
0.0000000001
 40
0.0
 40
0.0
 40
0.0
 40
235.6194490192347
 40
235.6194490192347
 40
471.2388980384693
 40
471.2388980384693
 40
471.2388980384693
 10
3222.472075165704
 20
1326.0
 30
0.0
 41
1.0
 10
3372.472075165704
 20
1326.0
 30
0.0
 41
0.707106781186546
 10
3372.472075165704
 20
1476.0
 30
0.0
 41
1.0
 10
3372.472075165705
 20
1626.0
 30
0.0
 41
0.7071067811865462
 10
3222.472075165704
 20
1626.0
 30
0.0
 41
1.0
  0
SPLINE
  5
DD
330
1F
100
AcDbEntity
  8
Linee visibili 2D
100
AcDbSpline
210
0.0
220
0.0
230
1.0
 70
    12
 71
     2
 72
     6
 73
     3
 74
     0
 42
0.0000000001
 43
0.0000000001
 40
0.0
 40
0.0
 40
0.0
 40
225.612026756122
 40
225.612026756122
 40
225.612026756122
 10
3072.805779694852
 20
1465.999999998425
 30
0.0
 41
1.0
 10
3082.159923163162
 20
1326.0
 30
0.0
 41
0.7302967433438157
 10
3222.472075165704
 20
1326.0
 30
0.0
 41
1.0
  0
SPLINE
  5
DE
330
1F
100
AcDbEntity
  8
Linee visibili 2D
100
AcDbSpline
210
0.0
220
0.0
230
1.0
 70
    12
 71
     2
 72
     6
 73
     3
 74
     0
 42
0.0000000001
 43
0.0000000001
 40
0.0
 40
0.0
 40
0.0
 40
225.612026756122
 40
225.612026756122
 40
225.612026756122
 10
3222.472075165704
 20
1626.0
 30
0.0
 41
1.0
 10
3082.159923163161
 20
1626.0
 30
0.0
 41
0.730296743343816
 10
3072.805779694852
 20
1486.000000001575
 30
0.0
 41
1.0
  0
SPLINE
  5
DF
330
1F
100
AcDbEntity
  8
Linee visibili 2D
100
AcDbSpline
210
0.0
220
0.0
230
1.0
 70
    12
 71
     2
 72
     6
 73
     3
 74
     0
 42
0.0000000001
 43
0.0000000001
 40
0.0
 40
0.0
 40
0.0
 40
1.271760100611653
 40
1.271760100611653
 40
1.271760100611653
 10
3152.775060163191
 20
1490.075422079873
 30
0.0
 41
1.0
 10
3152.571568839454
 20
1490.678046999501
 30
0.0
 41
0.9995883041323133
 10
3152.333845942381
 20
1491.268007453091
 30
0.0
 41
1.0
  0
SPLINE
  5
E0
330
1F
100
AcDbEntity
  8
Linee visibili 2D
100
AcDbSpline
210
0.0
220
0.0
230
1.0
 70
    12
 71
     2
 72
     6
 73
     3
 74
     0
 42
0.0000000001
 43
0.0000000001
 40
0.0
 40
0.0
 40
0.0
 40
1.271743377742452
 40
1.271743377742452
 40
1.271743377742452
 10
3152.775054796862
 20
1461.924562081662
 30
0.0
 41
1.0
 10
3152.571565727585
 20
1461.321945232791
 30
0.0
 41
0.999588313814859
 10
3152.333845942382
 20
1460.731992546909
 30
0.0
 41
1.0
  0
SPLINE
  5
E1
330
1F
100
AcDbEntity
  8
Linee visibili 2D
100
AcDbSpline
210
0.0
220
0.0
230
1.0
 70
    24
 71
     2
 72
     6
 73
     3
 74
     0
 42
0.0000000001
 43
0.0000000001
 40
0.0
 40
0.0
 40
0.0
 40
72.61197194504803
 40
72.61197194504803
 40
72.61197194504803
 10
3075.107360962352
 20
1466.0
 30
0.0
 10
3038.801374989828
 20
1466.0
 30
0.0
 10
3002.495389017304
 20
1466.0
 30
0.0
  0
SPLINE
  5
E2
330
1F
100
AcDbEntity
  8
Linee visibili 2D
100
AcDbSpline
210
0.0
220
0.0
230
1.0
 70
    24
 71
     2
 72
     6
 73
     3
 74
     0
 42
0.0000000001
 43
0.0000000001
 40
0.0
 40
0.0
 40
0.0
 40
72.61197194504803
 40
72.61197194504803
 40
72.61197194504803
 10
3002.495389017304
 20
1486.0
 30
0.0
 10
3038.801374989828
 20
1486.0
 30
0.0
 10
3075.107360962352
 20
1486.0
 30
0.0
  0
SPLINE
  5
E3
330
1F
100
AcDbEntity
  8
Linee visibili 2D
100
AcDbSpline
210
0.0
220
0.0
230
1.0
 70
    24
 71
     2
 72
     6
 73
     3
 74
     0
 42
0.0000000001
 43
0.0000000001
 40
0.0
 40
0.0
 40
0.0
 40
16.00000000000009
 40
16.00000000000009
 40
16.00000000000009
 10
3000.367033472352
 20
1484.0
 30
0.0
 10
3000.367033472352
 20
1476.0
 30
0.0
 10
3000.367033472352
 20
1468.0
 30
0.0
  0
SPLINE
  5
E4
330
1F
100
AcDbEntity
  8
Linee visibili 2D
100
AcDbSpline
210
0.0
220
0.0
230
1.0
 70
    24
 71
     2
 72
     6
 73
     3
 74
     0
 42
0.0000000001
 43
0.0000000001
 40
0.0
 40
0.0
 40
0.0
 40
6.385066634854866
 40
6.385066634854866
 40
6.385066634854866
 10
2993.981966837497
 20
1484.0
 30
0.0
 10
2997.174500154924
 20
1484.0
 30
0.0
 10
3000.367033472352
 20
1484.0
 30
0.0
  0
SPLINE
  5
E5
330
1F
100
AcDbEntity
  8
Linee visibili 2D
100
AcDbSpline
210
0.0
220
0.0
230
1.0
 70
    24
 71
     2
 72
     6
 73
     3
 74
     0
 42
0.0000000001
 43
0.0000000001
 40
0.0
 40
0.0
 40
0.0
 40
16.00000000000009
 40
16.00000000000009
 40
16.00000000000009
 10
2993.981966837497
 20
1468.0
 30
0.0
 10
2993.981966837497
 20
1476.0
 30
0.0
 10
2993.981966837497
 20
1484.0
 30
0.0
  0
SPLINE
  5
E6
330
1F
100
AcDbEntity
  8
Linee visibili 2D
100
AcDbSpline
210
0.0
220
0.0
230
1.0
 70
    24
 71
     2
 72
     6
 73
     3
 74
     0
 42
0.0000000001
 43
0.0000000001
 40
0.0
 40
0.0
 40
0.0
 40
6.385066634854866
 40
6.385066634854866
 40
6.385066634854866
 10
3000.367033472352
 20
1468.0
 30
0.0
 10
2997.174500154924
 20
1468.0
 30
0.0
 10
2993.981966837497
 20
1468.0
 30
0.0
  0
SPLINE
  5
E7
330
1F
100
AcDbEntity
  8
Linee visibili 2D
100
AcDbSpline
210
0.0
220
0.0
230
1.0
 70
    24
 71
     2
 72
     6
 73
     3
 74
     0
 42
0.0000000001
 43
0.0000000001
 40
0.0
 40
0.0
 40
0.0
 40
20.00000000000003
 40
20.00000000000003
 40
20.00000000000003
 10
3002.495389017304
 20
1466.0
 30
0.0
 10
3002.495389017304
 20
1476.0
 30
0.0
 10
3002.495389017304
 20
1486.0
 30
0.0
  0
SPLINE
  5
E8
330
1F
100
AcDbEntity
  8
Linee visibili 2D
100
AcDbSpline
210
0.0
220
0.0
230
1.0
 70
    24
 71
     2
 72
     6
 73
     3
 74
     0
 42
0.0000000001
 43
0.0000000001
 40
0.0
 40
0.0
 40
0.0
 40
10.64177772475909
 40
10.64177772475909
 40
10.64177772475909
 10
2991.853611292545
 20
1466.0
 30
0.0
 10
2997.174500154924
 20
1466.0
 30
0.0
 10
3002.495389017304
 20
1466.0
 30
0.0
  0
SPLINE
  5
E9
330
1F
100
AcDbEntity
  8
Linee visibili 2D
100
AcDbSpline
210
0.0
220
0.0
230
1.0
 70
    24
 71
     2
 72
     6
 73
     3
 74
     0
 42
0.0000000001
 43
0.0000000001
 40
0.0
 40
0.0
 40
0.0
 40
20.00000000000003
 40
20.00000000000003
 40
20.00000000000003
 10
2991.853611292545
 20
1486.0
 30
0.0
 10
2991.853611292545
 20
1476.0
 30
0.0
 10
2991.853611292545
 20
1466.0
 30
0.0
  0
SPLINE
  5
EA
330
1F
100
AcDbEntity
  8
Linee visibili 2D
100
AcDbSpline
210
0.0
220
0.0
230
1.0
 70
    24
 71
     2
 72
     6
 73
     3
 74
     0
 42
0.0000000001
 43
0.0000000001
 40
0.0
 40
0.0
 40
0.0
 40
10.64177772475909
 40
10.64177772475909
 40
10.64177772475909
 10
3002.495389017304
 20
1486.0
 30
0.0
 10
2997.174500154924
 20
1486.0
 30
0.0
 10
2991.853611292545
 20
1486.0
 30
0.0
  0
SPLINE
  5
EB
330
1F
100
AcDbEntity
  8
Linee visibili 2D - Tangent
100
AcDbSpline
210
0.0
220
0.0
230
1.0
 70
    12
 71
     2
 72
     8
 73
     5
 74
     0
 42
0.0000000001
 43
0.0000000001
 40
0.0
 40
0.0
 40
0.0
 40
110.8424949751065
 40
110.8424949751065
 40
221.6849899502132
 40
221.6849899502132
 40
221.6849899502132
 10
3222.472075165704
 20
1405.435476080293
 30
0.0
 41
1.0
 10
3151.907551245997
 20
1405.435476080293
 30
0.0
 41
0.7071067811865492
 10
3151.907551245997
 20
1476.0
 30
0.0
 41
1.0
 10
3151.907551245997
 20
1546.564523919707
 30
0.0
 41
0.7071067811865487
 10
3222.472075165704
 20
1546.564523919707
 30
0.0
 41
1.0
  0
SPLINE
  5
EC
330
1F
100
AcDbEntity
  8
Linee visibili 2D - Tangent
100
AcDbSpline
210
0.0
220
0.0
230
1.0
 70
    12
 71
     2
 72
     8
 73
     5
 74
     0
 42
0.0000000001
 43
0.0000000001
 40
0.0
 40
0.0
 40
0.0
 40
110.8424949751067
 40
110.8424949751067
 40
221.6849899502134
 40
221.6849899502134
 40
221.6849899502134
 10
3222.472075165704
 20
1546.564523919707
 30
0.0
 41
1.0
 10
3293.036599085411
 20
1546.564523919707
 30
0.0
 41
0.7071067811865485
 10
3293.036599085412
 20
1476.0
 30
0.0
 41
1.0
 10
3293.036599085412
 20
1405.435476080293
 30
0.0
 41
0.7071067811865457
 10
3222.472075165704
 20
1405.435476080293
 30
0.0
 41
1.0
  0
SPLINE
  5
ED
330
1F
100
AcDbEntity
  8
Linee visibili 2D
100
AcDbSpline
210
0.0
220
0.0
230
1.0
 70
    12
 71
     2
 72
     8
 73
     5
 74
     0
 42
0.0000000001
 43
0.0000000001
 40
0.0
 40
0.0
 40
0.0
 40
111.6900476611518
 40
111.6900476611518
 40
223.3800953223037
 40
223.3800953223037
 40
223.3800953223037
 10
3222.472075165704
 20
1547.104071491604
 30
0.0
 41
1.0
 10
3293.576167883471
 20
1547.104071512363
 30
0.0
 41
0.7071067811865477
 10
3293.576167904231
 20
1475.999978794596
 30
0.0
 41
1.0
 10
3293.576167883471
 20
1404.89588607683
 30
0.0
 41
0.7071067811865487
 10
3222.472075165704
 20
1404.895886097589
 30
0.0
 41
1.0
  0
SPLINE
  5
EE
330
1F
100
AcDbEntity
  8
Linee visibili 2D
100
AcDbSpline
210
0.0
220
0.0
230
1.0
 70
    24
 71
     2
 72
     6
 73
     3
 74
     0
 42
0.0000000001
 43
0.0000000001
 40
0.0
 40
0.0
 40
0.0
 40
0.0579285083963441
 40
0.0579285083963441
 40
0.0579285083963441
 10
3222.472075165704
 20
1547.104071491604
 30
0.0
 10
3222.472075165704
 20
1547.133035745802
 30
0.0
 10
3222.472075165704
 20
1547.162
 30
0.0
  0
SPLINE
  5
EF
330
1F
100
AcDbEntity
  8
Linee visibili 2D
100
AcDbSpline
210
0.0
220
0.0
230
1.0
 70
    12
 71
     2
 72
     8
 73
     5
 74
     0
 42
0.0000000001
 43
0.0000000001
 40
0.0
 40
0.0
 40
0.0
 40
111.6900476611519
 40
111.6900476611519
 40
223.3800953223036
 40
223.3800953223036
 40
223.3800953223036
 10
3222.472075165704
 20
1404.895886097589
 30
0.0
 41
1.0
 10
3151.367982447938
 20
1404.89588607683
 30
0.0
 41
0.7071067811865495
 10
3151.367982427178
 20
1475.999978794596
 30
0.0
 41
1.0
 10
3151.367982447938
 20
1547.104071512363
 30
0.0
 41
0.7071067811865485
 10
3222.472075165704
 20
1547.104071491603
 30
0.0
 41
1.0
  0
SPLINE
  5
F0
330
1F
100
AcDbEntity
  8
Linee visibili 2D
100
AcDbSpline
210
0.0
220
0.0
230
1.0
 70
    12
 71
     2
 72
     8
 73
     5
 74
     0
 42
0.0000000001
 43
0.0000000001
 40
0.0
 40
0.0
 40
0.0
 40
111.7810082073787
 40
111.7810082073787
 40
223.5620164147572
 40
223.5620164147572
 40
223.5620164147572
 10
3222.472075165704
 20
1404.838
 30
0.0
 41
1.0
 10
3293.634075165704
 20
1404.838
 30
0.0
 41
0.7071067811865446
 10
3293.634075165704
 20
1476.0
 30
0.0
 41
1.0
 10
3293.634075165704
 20
1547.162
 30
0.0
 41
0.7071067811865464
 10
3222.472075165704
 20
1547.162
 30
0.0
 41
1.0
  0
SPLINE
  5
F1
330
1F
100
AcDbEntity
  8
Linee visibili 2D
100
AcDbSpline
210
0.0
220
0.0
230
1.0
 70
    12
 71
     2
 72
     6
 73
     3
 74
     0
 42
0.0000000001
 43
0.0000000001
 40
0.0
 40
0.0
 40
0.0
 40
95.8741003213279
 40
95.8741003213279
 40
95.8741003213279
 10
3153.080527770503
 20
1460.225229190268
 30
0.0
 41
1.0
 10
3165.671698872173
 20
1404.838
 30
0.0
 41
0.7815606435200889
 10
3222.472075165704
 20
1404.838
 30
0.0
 41
1.0
  0
SPLINE
  5
F2
330
1F
100
AcDbEntity
  8
Linee visibili 2D
100
AcDbSpline
210
0.0
220
0.0
230
1.0
 70
    12
 71
     2
 72
     8
 73
     5
 74
     0
 42
0.0000000001
 43
0.0000000001
 40
0.0
 40
0.0
 40
0.0
 40
12.37240812658499
 40
12.37240812658499
 40
24.74481625317022
 40
24.74481625317022
 40
24.74481625317022
 10
3152.382917898172
 20
1488.310169679059
 30
0.0
 41
1.0
 10
3151.310075165704
 20
1482.201834460315
 30
0.0
 41
0.9962238548342454
 10
3151.310075165704
 20
1476.0
 30
0.0
 41
1.0
 10
3151.310075165704
 20
1469.798165539684
 30
0.0
 41
0.9962238548342504
 10
3152.382917898173
 20
1463.68983032094
 30
0.0
 41
1.0
  0
SPLINE
  5
F3
330
1F
100
AcDbEntity
  8
Linee visibili 2D
100
AcDbSpline
210
0.0
220
0.0
230
1.0
 70
    12
 71
     2
 72
     6
 73
     3
 74
     0
 42
0.0000000001
 43
0.0000000001
 40
0.0
 40
0.0
 40
0.0
 40
95.87410032132743
 40
95.87410032132743
 40
95.87410032132743
 10
3222.472075165704
 20
1547.162
 30
0.0
 41
1.0
 10
3165.671698872172
 20
1547.162
 30
0.0
 41
0.7815606435200905
 10
3153.080527770503
 20
1491.774770809732
 30
0.0
 41
1.0
  0
SPLINE
  5
F4
330
1F
100
AcDbEntity
  8
Linee visibili 2D
100
AcDbSpline
210
0.0
220
0.0
230
1.0
 70
    12
 71
     2
 72
     8
 73
     5
 74
     0
 42
0.0000000001
 43
0.0000000001
 40
0.0
 40
0.0
 40
0.0
 40
112.7530169743991
 40
112.7530169743991
 40
225.5060339487983
 40
225.5060339487983
 40
225.5060339487983
 10
3150.691275165704
 20
1476.0
 30
0.0
 41
1.0
 10
3150.691275165704
 20
1404.2192
 30
0.0
 41
0.7071067811865487
 10
3222.472075165704
 20
1404.2192
 30
0.0
 41
1.0
 10
3294.252875165704
 20
1404.2192
 30
0.0
 41
0.7071067811865444
 10
3294.252875165704
 20
1476.0
 30
0.0
 41
1.0
  0
SPLINE
  5
F5
330
1F
100
AcDbEntity
  8
Linee visibili 2D
100
AcDbSpline
210
0.0
220
0.0
230
1.0
 70
    12
 71
     2
 72
     8
 73
     5
 74
     0
 42
0.0000000001
 43
0.0000000001
 40
0.0
 40
0.0
 40
0.0
 40
112.7530169743991
 40
112.7530169743991
 40
225.5060339487982
 40
225.5060339487982
 40
225.5060339487982
 10
3294.252875165704
 20
1476.0
 30
0.0
 41
1.0
 10
3294.252875165704
 20
1547.7808
 30
0.0
 41
0.7071067811865477
 10
3222.472075165704
 20
1547.7808
 30
0.0
 41
1.0
 10
3150.691275165704
 20
1547.7808
 30
0.0
 41
0.7071067811865476
 10
3150.691275165704
 20
1476.0
 30
0.0
 41
1.0
  0
SPLINE
  5
F6
330
1F
100
AcDbEntity
  8
Linee visibili 2D
100
AcDbSpline
210
0.0
220
0.0
230
1.0
 70
    12
 71
     2
 72
     8
 73
     5
 74
     0
 42
0.0000000001
 43
0.0000000001
 40
0.0
 40
0.0
 40
0.0
 40
112.8802655454428
 40
112.8802655454428
 40
225.7605310908856
 40
225.7605310908856
 40
225.7605310908856
 10
3150.610266209372
 20
1476.0
 30
0.0
 41
1.0
 10
3150.610266209373
 20
1404.138191043668
 30
0.0
 41
0.7071067811865479
 10
3222.472075165704
 20
1404.138191043668
 30
0.0
 41
1.0
 10
3294.333884122036
 20
1404.138191043668
 30
0.0
 41
0.7071067811865455
 10
3294.333884122036
 20
1476.0
 30
0.0
 41
1.0
  0
SPLINE
  5
F7
330
1F
100
AcDbEntity
  8
Linee visibili 2D
100
AcDbSpline
210
0.0
220
0.0
230
1.0
 70
    12
 71
     2
 72
     8
 73
     5
 74
     0
 42
0.0000000001
 43
0.0000000001
 40
0.0
 40
0.0
 40
0.0
 40
112.8802655454428
 40
112.8802655454428
 40
225.7605310908855
 40
225.7605310908855
 40
225.7605310908855
 10
3294.333884122036
 20
1476.0
 30
0.0
 41
1.0
 10
3294.333884122036
 20
1547.861808956332
 30
0.0
 41
0.7071067811865471
 10
3222.472075165704
 20
1547.861808956332
 30
0.0
 41
1.0
 10
3150.610266209372
 20
1547.861808956332
 30
0.0
 41
0.7071067811865487
 10
3150.610266209372
 20
1476.0
 30
0.0
 41
1.0
  0
SPLINE
  5
F8
330
1F
100
AcDbEntity
  8
Linee visibili 2D - Tangent
100
AcDbSpline
210
0.0
220
0.0
230
1.0
 70
    12
 71
     2
 72
     8
 73
     5
 74
     0
 42
0.0000000001
 43
0.0000000001
 40
0.0
 40
0.0
 40
0.0
 40
116.1999976934955
 40
116.1999976934955
 40
232.3999953869911
 40
232.3999953869911
 40
232.3999953869911
 10
3296.447291246451
 20
1476.0
 30
0.0
 41
1.0
 10
3296.447291246451
 20
1402.024783919253
 30
0.0
 41
0.7071067811865474
 10
3222.472075165704
 20
1402.024783919253
 30
0.0
 41
1.0
 10
3148.496859084958
 20
1402.024783919253
 30
0.0
 41
0.7071067811865465
 10
3148.496859084958
 20
1476.0
 30
0.0
 41
1.0
  0
SPLINE
  5
F9
330
1F
100
AcDbEntity
  8
Linee visibili 2D - Tangent
100
AcDbSpline
210
0.0
220
0.0
230
1.0
 70
    12
 71
     2
 72
     8
 73
     5
 74
     0
 42
0.0000000001
 43
0.0000000001
 40
0.0
 40
0.0
 40
0.0
 40
116.1999976934955
 40
116.1999976934955
 40
232.3999953869912
 40
232.3999953869912
 40
232.3999953869912
 10
3148.496859084958
 20
1476.0
 30
0.0
 41
1.0
 10
3148.496859084958
 20
1549.975216080746
 30
0.0
 41
0.7071067811865476
 10
3222.472075165704
 20
1549.975216080747
 30
0.0
 41
1.0
 10
3296.447291246451
 20
1549.975216080747
 30
0.0
 41
0.7071067811865442
 10
3296.447291246451
 20
1476.0
 30
0.0
 41
1.0
  0
SPLINE
  5
FA
330
1F
100
AcDbEntity
  8
Linee visibili 2D
100
AcDbSpline
210
0.0
220
0.0
230
1.0
 70
    12
 71
     2
 72
     8
 73
     5
 74
     0
 42
0.0000000001
 43
0.0000000001
 40
0.0
 40
0.0
 40
0.0
 40
229.7937083109764
 40
229.7937083109764
 40
459.5874166219528
 40
459.5874166219528
 40
459.5874166219528
 10
3372.188071835509
 20
1476.0
 30
0.0
 41
1.0
 10
3372.188071835509
 20
1620.430753951165
 30
0.0
 41
0.7196959414519216
 10
3227.850546931834
 20
1625.619356034886
 30
0.0
 41
1.0
 10
3083.51302202816
 20
1630.807958118606
 30
0.0
 41
0.7196959414519231
 10
3073.142516273859
 20
1486.75
 30
0.0
 41
1.0
  0
SPLINE
  5
FB
330
1F
100
AcDbEntity
  8
Linee visibili 2D - Tangent
100
AcDbSpline
210
0.0
220
0.0
230
1.0
 70
    12
 71
     2
 72
     8
 73
     5
 74
     0
 42
0.0000000001
 43
0.0000000001
 40
0.0
 40
0.0
 40
0.0
 40
117.342770479261
 40
117.342770479261
 40
234.6855409585219
 40
234.6855409585219
 40
234.6855409585219
 10
3147.769347334216
 20
1476.0
 30
0.0
 41
1.0
 10
3147.769347334215
 20
1550.702727831489
 30
0.0
 41
0.7071067811865455
 10
3222.472075165704
 20
1550.702727831488
 30
0.0
 41
1.0
 10
3297.174802997192
 20
1550.702727831489
 30
0.0
 41
0.7071067811865462
 10
3297.174802997192
 20
1476.0
 30
0.0
 41
1.0
  0
SPLINE
  5
FC
330
1F
100
AcDbEntity
  8
Linee visibili 2D - Tangent
100
AcDbSpline
210
0.0
220
0.0
230
1.0
 70
    12
 71
     2
 72
     8
 73
     5
 74
     0
 42
0.0000000001
 43
0.0000000001
 40
0.0
 40
0.0
 40
0.0
 40
117.3427704792609
 40
117.3427704792609
 40
234.6855409585218
 40
234.6855409585218
 40
234.6855409585218
 10
3297.174802997192
 20
1476.0
 30
0.0
 41
1.0
 10
3297.174802997193
 20
1401.297272168511
 30
0.0
 41
0.7071067811865471
 10
3222.472075165704
 20
1401.297272168511
 30
0.0
 41
1.0
 10
3147.769347334216
 20
1401.297272168511
 30
0.0
 41
0.7071067811865478
 10
3147.769347334216
 20
1476.0
 30
0.0
 41
1.0
  0
SPLINE
  5
FD
330
1F
100
AcDbEntity
  8
Linee visibili 2D
100
AcDbSpline
210
0.0
220
0.0
230
1.0
 70
    12
 71
     2
 72
     8
 73
     5
 74
     0
 42
0.0000000001
 43
0.0000000001
 40
0.0
 40
0.0
 40
0.0
 40
229.7937083109793
 40
229.7937083109793
 40
459.5874166219585
 40
459.5874166219585
 40
459.5874166219585
 10
3073.142516273856
 20
1465.25
 30
0.0
 41
1.0
 10
3083.513022028156
 20
1321.192041881392
 30
0.0
 41
0.7196959414519217
 10
3227.850546931832
 20
1326.380643965113
 30
0.0
 41
1.0
 10
3372.188071835508
 20
1331.569246048833
 30
0.0
 41
0.7196959414519221
 10
3372.188071835509
 20
1476.0
 30
0.0
 41
1.0
  0
SPLINE
  5
FE
330
1F
100
AcDbEntity
  8
Linee visibili 2D
100
AcDbSpline
210
0.0
220
0.0
230
1.0
 70
    24
 71
     2
 72
     6
 73
     3
 74
     0
 42
0.0000000001
 43
0.0000000001
 40
0.0
 40
0.0
 40
0.0
 40
1.135548281259616
 40
1.135548281259616
 40
1.135548281259616
 10
3074.278064555115
 20
1465.250000004226
 30
0.0
 10
3073.710290414485
 20
1465.250000002113
 30
0.0
 10
3073.142516273856
 20
1465.25
 30
0.0
  0
SPLINE
  5
FF
330
1F
100
AcDbEntity
  8
Linee visibili 2D - Tangent
100
AcDbSpline
210
0.0
220
0.0
230
1.0
 70
    12
 71
     2
 72
     6
 73
     3
 74
     0
 42
0.0000000001
 43
0.0000000001
 40
0.0
 40
0.0
 40
0.0
 40
0.7524320423816442
 40
0.7524320423816442
 40
0.7524320423816442
 10
3074.217629636957
 20
1466.0
 30
0.0
 41
1.0
 10
3074.246753344029
 20
1465.624911867695
 30
0.0
 41
0.9999957465392639
 10
3074.278064555115
 20
1465.250000004226
 30
0.0
 41
1.0
  0
SPLINE
  5
100
330
1F
100
AcDbEntity
  8
Linee visibili 2D - Tangent
100
AcDbSpline
210
0.0
220
0.0
230
1.0
 70
    12
 71
     2
 72
     6
 73
     3
 74
     0
 42
0.0000000001
 43
0.0000000001
 40
0.0
 40
0.0
 40
0.0
 40
0.7524320423797916
 40
0.7524320423797916
 40
0.7524320423797916
 10
3074.278064555121
 20
1486.749999995772
 30
0.0
 41
1.0
 10
3074.246753344036
 20
1486.375088132304
 30
0.0
 41
0.9999957465392656
 10
3074.217629636962
 20
1486.0
 30
0.0
 41
1.0
  0
SPLINE
  5
101
330
1F
100
AcDbEntity
  8
Linee visibili 2D
100
AcDbSpline
210
0.0
220
0.0
230
1.0
 70
    24
 71
     2
 72
     6
 73
     3
 74
     0
 42
0.0000000001
 43
0.0000000001
 40
0.0
 40
0.0
 40
0.0
 40
1.135548281261549
 40
1.135548281261549
 40
1.135548281261549
 10
3073.142516273859
 20
1486.75
 30
0.0
 10
3073.71029041449
 20
1486.749999997886
 30
0.0
 10
3074.278064555121
 20
1486.749999995772
 30
0.0
  0
SPLINE
  5
102
330
1F
100
AcDbEntity
  8
Linee visibili 2D
100
AcDbSpline
210
0.0
220
0.0
230
1.0
 70
    12
 71
     2
 72
     6
 73
     3
 74
     0
 42
0.0000000001
 43
0.0000000001
 40
0.0
 40
0.0
 40
0.0
 40
3.317740012377155
 40
3.317740012377155
 40
3.317740012377155
 10
3151.040727414498
 20
1468.925693879515
 30
0.0
 41
1.0
 10
3151.286854580897
 20
1470.566975832359
 30
0.0
 41
0.9993096303462965
 10
3151.410433057128
 20
1472.222002536367
 30
0.0
 41
1.0
  0
SPLINE
  5
103
330
1F
100
AcDbEntity
  8
Linee visibili 2D
100
AcDbSpline
210
0.0
220
0.0
230
1.0
 70
    12
 71
     2
 72
     6
 73
     3
 74
     0
 42
0.0000000001
 43
0.0000000001
 40
0.0
 40
0.0
 40
0.0
 40
3.317740012376469
 40
3.317740012376469
 40
3.317740012376469
 10
3151.410433057128
 20
1479.777997463635
 30
0.0
 41
1.0
 10
3151.286854580896
 20
1481.433024167643
 30
0.0
 41
0.9993096303463063
 10
3151.040727414498
 20
1483.074306120487
 30
0.0
 41
1.0
  0
SPLINE
  5
104
330
1F
100
AcDbEntity
  8
Linee visibili 2D
100
AcDbSpline
210
0.0
220
0.0
230
1.0
 70
    12
 71
     2
 72
     6
 73
     3
 74
     0
 42
0.0000000001
 43
0.0000000001
 40
0.0
 40
0.0
 40
0.0
 40
1.322545264496303
 40
1.322545264496303
 40
1.322545264496303
 10
3152.397259396403
 20
1488.304364555632
 30
0.0
 41
1.0
 10
3152.213184517187
 20
1488.939659328561
 30
0.0
 41
0.9996545274431208
 10
3151.995979880307
 20
1489.564403400472
 30
0.0
 41
1.0
  0
SPLINE
  5
105
330
1F
100
AcDbEntity
  8
Linee visibili 2D
100
AcDbSpline
210
0.0
220
0.0
230
1.0
 70
    12
 71
     2
 72
     6
 73
     3
 74
     0
 42
0.0000000001
 43
0.0000000001
 40
0.0
 40
0.0
 40
0.0
 40
1.322545264495788
 40
1.322545264495788
 40
1.322545264495788
 10
3152.397259396403
 20
1463.695635444367
 30
0.0
 41
1.0
 10
3152.213184517187
 20
1463.060340671438
 30
0.0
 41
0.9996545274431082
 10
3151.995979880307
 20
1462.435596599528
 30
0.0
 41
1.0
  0
SPLINE
  5
106
330
1F
100
AcDbEntity
  8
Linee visibili 2D
100
AcDbSpline
210
0.0
220
0.0
230
1.0
 70
    24
 71
     2
 72
     6
 73
     3
 74
     0
 42
0.0000000001
 43
0.0000000001
 40
0.0
 40
0.0
 40
0.0
 40
12.0
 40
12.0
 40
12.0
 10
3372.472075165704
 20
1847.235147419386
 30
0.0
 10
3372.472075165704
 20
1841.235147419386
 30
0.0
 10
3372.472075165704
 20
1835.235147419386
 30
0.0
  0
SPLINE
  5
107
330
1F
100
AcDbEntity
  8
Linee visibili 2D
100
AcDbSpline
210
0.0
220
0.0
230
1.0
 70
    24
 71
     2
 72
     6
 73
     3
 74
     0
 42
0.0000000001
 43
0.0000000001
 40
0.0
 40
0.0
 40
0.0
 40
6.000000000000227
 40
6.000000000000227
 40
6.000000000000227
 10
3072.472075165704
 20
1841.235147419386
 30
0.0
 10
3072.472075165704
 20
1844.235147419386
 30
0.0
 10
3072.472075165704
 20
1847.235147419386
 30
0.0
  0
SPLINE
  5
108
330
1F
100
AcDbEntity
  8
Linee visibili 2D
100
AcDbSpline
210
0.0
220
0.0
230
1.0
 70
    12
 71
     2
 72
     6
 73
     3
 74
     0
 42
0.0000000001
 43
0.0000000001
 40
0.0
 40
0.0
 40
0.0
 40
0.7285521784580961
 40
0.7285521784580961
 40
0.7285521784580961
 10
3372.215664785063
 20
3226.833247419386
 30
0.0
 41
1.0
 10
3372.214608163029
 20
3226.37020475682
 30
0.0
 41
0.7087190355621932
 10
3371.751565502096
 20
3226.369147419387
 30
0.0
 41
1.0
  0
SPLINE
  5
109
330
1F
100
AcDbEntity
  8
Linee visibili 2D
100
AcDbSpline
210
0.0
220
0.0
230
1.0
 70
    12
 71
     2
 72
     6
 73
     3
 74
     0
 42
0.0000000001
 43
0.0000000001
 40
0.0
 40
0.0
 40
0.0
 40
0.9463574366183792
 40
0.9463574366183792
 40
0.9463574366183792
 10
3147.769347334216
 20
3434.703380939388
 30
0.0
 41
1.0
 10
3147.954932591939
 20
3435.212541565502
 30
0.0
 41
0.8201329118914665
 10
3148.496858649905
 20
3435.214147419385
 30
0.0
 41
1.0
  0
SPLINE
  5
10A
330
1F
100
AcDbEntity
  8
Linee visibili 2D
100
AcDbSpline
210
0.0
220
0.0
230
1.0
 70
    24
 71
     2
 72
     6
 73
     3
 74
     0
 42
0.0000000001
 43
0.0000000001
 40
0.0
 40
0.0
 40
0.0
 40
212.7282214334261
 40
212.7282214334261
 40
212.7282214334261
 10
3075.51228925933
 20
3234.62286276585
 30
0.0
 10
3111.640818296773
 20
3334.663121852619
 30
0.0
 10
3147.769347334216
 20
3434.703380939388
 30
0.0
  0
SPLINE
  5
10B
330
1F
100
AcDbEntity
  8
Linee visibili 2D
100
AcDbSpline
210
0.0
220
0.0
230
1.0
 70
    24
 71
     2
 72
     6
 73
     3
 74
     0
 42
0.0000000001
 43
0.0000000001
 40
0.0
 40
0.0
 40
0.0
 40
149.9756393316854
 40
149.9756393316854
 40
149.9756393316854
 10
3222.472075165704
 20
1835.235147419386
 30
0.0
 10
3297.459894831547
 20
1835.235147419386
 30
0.0
 10
3372.44771449739
 20
1835.235147419386
 30
0.0
  0
SPLINE
  5
10C
330
1F
100
AcDbEntity
  8
Linee visibili 2D
100
AcDbSpline
210
0.0
220
0.0
230
1.0
 70
    24
 71
     2
 72
     6
 73
     3
 74
     0
 42
0.0000000001
 43
0.0000000001
 40
0.0
 40
0.0
 40
0.0
 40
149.9699969993999
 40
149.9699969993999
 40
149.9699969993999
 10
3072.502078166304
 20
1835.235147419386
 30
0.0
 10
3147.487076666004
 20
1835.235147419386
 30
0.0
 10
3222.472075165704
 20
1835.235147419386
 30
0.0
  0
SPLINE
  5
10D
330
1F
100
AcDbEntity
  8
Linee visibili 2D
100
AcDbSpline
210
0.0
220
0.0
230
1.0
 70
    24
 71
     2
 72
     6
 73
     3
 74
     0
 42
0.0000000001
 43
0.0000000001
 40
0.0
 40
0.0
 40
0.0
 40
3.0
 40
3.0
 40
3.0
 10
3072.502078166304
 20
1838.235147419386
 30
0.0
 10
3072.502078166304
 20
1836.735147419386
 30
0.0
 10
3072.502078166304
 20
1835.235147419386
 30
0.0
  0
SPLINE
  5
10E
330
1F
100
AcDbEntity
  8
Linee visibili 2D
100
AcDbSpline
210
0.0
220
0.0
230
1.0
 70
    12
 71
     2
 72
     6
 73
     3
 74
     0
 42
0.0000000001
 43
0.0000000001
 40
0.0
 40
0.0
 40
0.0
 40
3.000199986401001
 40
3.000199986401001
 40
3.000199986401001
 10
3072.472075165704
 20
1841.235147419386
 30
0.0
 41
1.0
 10
3072.50207072362
 20
1839.73529737496
 30
0.0
 41
0.9999500433517964
 10
3072.502078166304
 20
1838.235147419386
 30
0.0
 41
1.0
  0
SPLINE
  5
10F
330
1F
100
AcDbEntity
  8
Linee visibili 2D
100
AcDbSpline
210
0.0
220
0.0
230
1.0
 70
    24
 71
     2
 72
     6
 73
     3
 74
     0
 42
0.0000000001
 43
0.0000000001
 40
0.0
 40
0.0
 40
0.0
 40
149.9630459540348
 40
149.9630459540348
 40
149.9630459540348
 10
3222.472075165704
 20
1847.235147419386
 30
0.0
 10
3297.453598142722
 20
1847.235147419386
 30
0.0
 10
3372.435121119739
 20
1847.235147419386
 30
0.0
  0
SPLINE
  5
110
330
1F
100
AcDbEntity
  8
Linee visibili 2D
100
AcDbSpline
210
0.0
220
0.0
230
1.0
 70
    12
 71
     2
 72
     8
 73
     5
 74
     0
 42
0.0000000001
 43
0.0000000001
 40
0.0
 40
0.0
 40
0.0
 40
0.0369540459652171
 40
0.0369540459652171
 40
235.6564030651997
 40
235.6564030651997
 40
235.6564030651997
 10
3072.509029211669
 20
1847.235147476196
 30
0.0
 41
1.0
 10
3072.490552188687
 20
1847.235147476196
 30
0.0
 41
1.0
 10
3072.472075165704
 20
1847.235147476195
 30
0.0
 41
1.0
 10
3072.472075165704
 20
1847.235147419386
 30
0.0
 41
0.7071067811865476
 10
3222.472075165704
 20
1847.235147419386
 30
0.0
 41
1.0
  0
SPLINE
  5
111
330
1F
100
AcDbEntity
  8
Linee visibili 2D
100
AcDbSpline
210
0.0
220
0.0
230
1.0
 70
    24
 71
     2
 72
     6
 73
     3
 74
     0
 42
0.0000000001
 43
0.0000000001
 40
0.0
 40
0.0
 40
0.0
 40
969.8816349035421
 40
969.8816349035421
 40
969.8816349035421
 10
3227.472075165704
 20
1847.235147419386
 30
0.0
 10
3227.472075165704
 20
2332.175964871157
 30
0.0
 10
3227.472075165704
 20
2817.116782322928
 30
0.0
  0
SPLINE
  5
112
330
1F
100
AcDbEntity
  8
Linee visibili 2D
100
AcDbSpline
210
0.0
220
0.0
230
1.0
 70
    24
 71
     2
 72
     6
 73
     3
 74
     0
 42
0.0000000001
 43
0.0000000001
 40
0.0
 40
0.0
 40
0.0
 40
968.118365096457
 40
968.118365096457
 40
968.118365096457
 10
3217.472075165704
 20
2815.353512515843
 30
0.0
 10
3217.472075165704
 20
2331.294329967615
 30
0.0
 10
3217.472075165704
 20
1847.235147419386
 30
0.0
  0
SPLINE
  5
113
330
1F
100
AcDbEntity
  8
Linee visibili 2D
100
AcDbSpline
210
0.0
220
0.0
230
1.0
 70
    24
 71
     2
 72
     6
 73
     3
 74
     0
 42
0.0000000001
 43
0.0000000001
 40
0.0
 40
0.0
 40
0.0
 40
659.6642574303794
 40
659.6642574303794
 40
659.6642574303794
 10
2991.853611292545
 20
3435.235147419387
 30
0.0
 10
3104.662843229125
 20
3125.294329967615
 30
0.0
 10
3217.472075165704
 20
2815.353512515843
 30
0.0
  0
SPLINE
  5
114
330
1F
100
AcDbEntity
  8
Linee visibili 2D
100
AcDbSpline
210
0.0
220
0.0
230
1.0
 70
    24
 71
     2
 72
     6
 73
     3
 74
     0
 42
0.0000000001
 43
0.0000000001
 40
0.0
 40
0.0
 40
0.0
 40
213.4871342139044
 40
213.4871342139044
 40
213.4871342139044
 10
3075.51228925933
 20
3234.62286276585
 30
0.0
 10
3039.003839138317
 20
3334.929005092618
 30
0.0
 10
3002.495389017304
 20
3435.235147419387
 30
0.0
  0
SPLINE
  5
115
330
1F
100
AcDbEntity
  8
Linee visibili 2D
100
AcDbSpline
210
0.0
220
0.0
230
1.0
 70
    24
 71
     2
 72
     6
 73
     3
 74
     0
 42
0.0000000001
 43
0.0000000001
 40
0.0
 40
0.0
 40
0.0
 40
434.2956648422337
 40
434.2956648422337
 40
434.2956648422337
 10
3227.472075165704
 20
2817.116782322928
 30
0.0
 10
3153.203142398175
 20
3021.168998068707
 30
0.0
 10
3078.934209630647
 20
3225.221213814486
 30
0.0
  0
SPLINE
  5
116
330
1F
100
AcDbEntity
  8
Linee visibili 2D
100
AcDbSpline
210
0.0
220
0.0
230
1.0
 70
    24
 71
     2
 72
     6
 73
     3
 74
     0
 42
0.0000000001
 43
0.0000000001
 40
0.0
 40
0.0
 40
0.0
 40
10.64177772475909
 40
10.64177772475909
 40
10.64177772475909
 10
2991.853611292545
 20
3435.235147419387
 30
0.0
 10
2997.174500154924
 20
3435.235147419387
 30
0.0
 10
3002.495389017304
 20
3435.235147419387
 30
0.0
  0
SPLINE
  5
117
330
1F
100
AcDbEntity
  8
Linee visibili 2D
100
AcDbSpline
210
0.0
220
0.0
230
1.0
 70
    24
 71
     2
 72
     6
 73
     3
 74
     0
 42
0.0000000001
 43
0.0000000001
 40
0.0
 40
0.0
 40
0.0
 40
3.095571785604019
 40
3.095571785604019
 40
3.095571785604019
 10
3075.107360962352
 20
3223.478446711165
 30
0.0
 10
3075.636734915246
 20
3224.932889693188
 30
0.0
 10
3076.166108868139
 20
3226.38733267521
 30
0.0
  0
SPLINE
  5
118
330
1F
100
AcDbEntity
  8
Linee visibili 2D
100
AcDbSpline
210
0.0
220
0.0
230
1.0
 70
    24
 71
     2
 72
     6
 73
     3
 74
     0
 42
0.0000000001
 43
0.0000000001
 40
0.0
 40
0.0
 40
0.0
 40
4.168130143375185
 40
4.168130143375185
 40
4.168130143375185
 10
3077.92643882471
 20
3222.452386281188
 30
0.0
 10
3078.639231059229
 20
3224.410766850291
 30
0.0
 10
3079.352023293748
 20
3226.369147419393
 30
0.0
  0
SPLINE
  5
119
330
1F
100
AcDbEntity
  8
Linee visibili 2D
100
AcDbSpline
210
0.0
220
0.0
230
1.0
 70
    24
 71
     2
 72
     6
 73
     3
 74
     0
 42
0.0000000001
 43
0.0000000001
 40
0.0
 40
0.0
 40
0.0
 40
3.000000000000213
 40
3.000000000000213
 40
3.000000000000213
 10
3077.92643882471
 20
3222.452386281188
 30
0.0
 10
3076.516899893531
 20
3222.965416496177
 30
0.0
 10
3075.107360962352
 20
3223.478446711165
 30
0.0
  0
SPLINE
  5
11A
330
1F
100
AcDbEntity
  8
Linee visibili 2D
100
AcDbSpline
210
0.0
220
0.0
230
1.0
 70
    12
 71
     2
 72
     8
 73
     5
 74
     0
 42
0.0000000001
 43
0.0000000001
 40
0.0
 40
0.0
 40
0.0
 40
0.0548122972801215
 40
0.0548122972801215
 40
0.1608494843983896
 40
0.1608494843983896
 40
0.1608494843983896
 10
3073.142516273856
 20
3226.990887531389
 30
0.0
 41
1.0
 10
3073.133175618517
 20
3226.965088259047
 30
0.0
 41
0.998253223684449
 10
3073.126943311371
 20
3226.938367318886
 30
0.0
 41
1.0
 10
3073.114907079184
 20
3226.886496903428
 30
0.0
 41
0.9935340115195417
 10
3073.114883189707
 20
3226.833248332419
 30
0.0
 41
1.0
  0
SPLINE
  5
11B
330
1F
100
AcDbEntity
  8
Linee visibili 2D
100
AcDbSpline
210
0.0
220
0.0
230
1.0
 70
    12
 71
     2
 72
     6
 73
     3
 74
     0
 42
0.0000000001
 43
0.0000000001
 40
0.0
 40
0.0
 40
0.0
 40
0.7229227101192984
 40
0.7229227101192984
 40
0.7229227101192984
 10
3073.114883188997
 20
3226.833247419386
 30
0.0
 41
1.0
 10
3073.131690372744
 20
3226.384822550006
 30
0.0
 41
0.7322357121885795
 10
3073.580156241216
 20
3226.369147419387
 30
0.0
 41
1.0
  0
SPLINE
  5
11C
330
1F
100
AcDbEntity
  8
Linee visibili 2D
100
AcDbSpline
210
0.0
220
0.0
230
1.0
 70
    24
 71
     2
 72
     6
 73
     3
 74
     0
 42
0.0000000001
 43
0.0000000001
 40
0.0
 40
0.0
 40
0.0
 40
299.0638801875291
 40
299.0638801875291
 40
299.0638801875291
 10
3073.116055703525
 20
3226.833247419386
 30
0.0
 10
3222.647995797289
 20
3226.833247419386
 30
0.0
 10
3372.179935891054
 20
3226.833247419386
 30
0.0
  0
SPLINE
  5
11D
330
1F
100
AcDbEntity
  8
Linee visibili 2D
100
AcDbSpline
210
0.0
220
0.0
230
1.0
 70
    12
 71
     2
 72
     6
 73
     3
 74
     0
 42
0.0000000001
 43
0.0000000001
 40
0.0
 40
0.0
 40
0.0
 40
0.9469434487914247
 40
0.9469434487914247
 40
0.9469434487914247
 10
3296.447291246451
 20
3435.214147419386
 30
0.0
 41
1.0
 10
3296.990344842322
 20
3435.214147419387
 30
0.0
 41
0.8184339974278698
 10
3297.174802997192
 20
3434.703380939388
 30
0.0
 41
1.0
  0
SPLINE
  5
11E
330
1F
100
AcDbEntity
  8
Linee visibili 2D
100
AcDbSpline
210
0.0
220
0.0
230
1.0
 70
    24
 71
     2
 72
     6
 73
     3
 74
     0
 42
0.0000000001
 43
0.0000000001
 40
0.0
 40
0.0
 40
0.0
 40
147.9504321614932
 40
147.9504321614932
 40
147.9504321614932
 10
3296.447291246451
 20
3435.214147419386
 30
0.0
 10
3222.472075165704
 20
3435.214147419386
 30
0.0
 10
3148.496859084958
 20
3435.214147419386
 30
0.0
  0
SPLINE
  5
11F
330
1F
100
AcDbEntity
  8
Linee visibili 2D
100
AcDbSpline
210
0.0
220
0.0
230
1.0
 70
    24
 71
     2
 72
     6
 73
     3
 74
     0
 42
0.0000000001
 43
0.0000000001
 40
0.0
 40
0.0
 40
0.0
 40
0.1676050268159979
 40
0.1676050268159979
 40
0.1676050268159979
 10
3368.898490604802
 20
3226.990887532754
 30
0.0
 10
3368.926955671813
 20
3226.912067476844
 30
0.0
 10
3368.955420738823
 20
3226.833247420935
 30
0.0
  0
SPLINE
  5
120
330
1F
100
AcDbEntity
  8
Linee visibili 2D
100
AcDbSpline
210
0.0
220
0.0
230
1.0
 70
    12
 71
     2
 72
     6
 73
     3
 74
     0
 42
0.0000000001
 43
0.0000000001
 40
0.0
 40
0.0
 40
0.0
 40
0.1676573936794041
 40
0.1676573936794041
 40
0.1676573936794041
 10
3076.440802355704
 20
3226.990887531399
 30
0.0
 41
1.0
 10
3076.412260269208
 20
3226.912067485013
 30
0.0
 41
0.9999999999999432
 10
3076.383718235812
 20
3226.83324741941
 30
0.0
 41
1.0
  0
SPLINE
  5
121
330
1F
100
AcDbEntity
  8
Linee visibili 2D - Tangent
100
AcDbSpline
210
0.0
220
0.0
230
1.0
 70
    24
 71
     2
 72
     6
 73
     3
 74
     0
 42
0.0000000001
 43
0.0000000001
 40
0.0
 40
0.0
 40
0.0
 40
149.4054556629768
 40
149.4054556629768
 40
149.4054556629768
 10
3297.174802997192
 20
3434.703380939388
 30
0.0
 10
3222.472075165704
 20
3434.703380939388
 30
0.0
 10
3147.769347334216
 20
3434.703380939388
 30
0.0
  0
SPLINE
  5
122
330
1F
100
AcDbEntity
  8
Linee visibili 2D
100
AcDbSpline
210
0.0
220
0.0
230
1.0
 70
    24
 71
     2
 72
     6
 73
     3
 74
     0
 42
0.0000000001
 43
0.0000000001
 40
0.0
 40
0.0
 40
0.0
 40
220.8305636684168
 40
220.8305636684168
 40
220.8305636684168
 10
3297.174802997192
 20
3434.703380939388
 30
0.0
 10
3334.679386912242
 20
3330.852812101819
 30
0.0
 10
3372.183970827292
 20
3227.00224326425
 30
0.0
  0
SPLINE
  5
123
330
1F
100
AcDbEntity
  8
Linee visibili 2D
100
AcDbSpline
210
0.0
220
0.0
230
1.0
 70
    24
 71
     2
 72
     6
 73
     3
 74
     0
 42
0.0000000001
 43
0.0000000001
 40
0.0
 40
0.0
 40
0.0
 40
299.0100104153028
 40
299.0100104153028
 40
299.0100104153028
 10
3073.142516273856
 20
3226.990887531388
 30
0.0
 10
3222.647521481507
 20
3226.990887531388
 30
0.0
 10
3372.152526689159
 20
3226.990887531388
 30
0.0
  0
SPLINE
  5
124
330
1F
100
AcDbEntity
  8
Linee visibili 2D
100
AcDbSpline
210
0.0
220
0.0
230
1.0
 70
    12
 71
     2
 72
     6
 73
     3
 74
     0
 42
0.0000000001
 43
0.0000000001
 40
0.0
 40
0.0
 40
0.0
 40
3.335417505963755
 40
3.335417505963755
 40
3.335417505963755
 10
3074.27806455511
 20
3230.127053987409
 30
0.0
 41
1.0
 10
3073.710280461735
 20
3228.558974363109
 30
0.0
 41
0.9999999999798573
 10
3073.14251627385
 20
3226.990887531399
 30
0.0
 41
1.0
  0
SPLINE
  5
125
330
1F
100
AcDbEntity
  8
Linee visibili 2D
100
AcDbSpline
210
0.0
220
0.0
230
1.0
 70
    24
 71
     2
 72
     6
 73
     3
 74
     0
 42
0.0000000001
 43
0.0000000001
 40
0.0
 40
0.0
 40
0.0
 40
298.135970938694
 40
298.135970938694
 40
298.135970938694
 10
3073.580156241216
 20
3226.369147419387
 30
0.0
 10
3222.648141710563
 20
3226.369147419387
 30
0.0
 10
3371.71612717991
 20
3226.369147419387
 30
0.0
  0
ENDSEC
  0
SECTION
  2
OBJECTS
  0
DICTIONARY
  5
C
330
0
100
AcDbDictionary
281
     1
  3
ACAD_GROUP
350
D
  3
ACAD_LAYOUT
350
1A
  3
ACAD_MLEADERSTYLE
350
129
  3
ACAD_MLINESTYLE
350
17
  3
ACAD_PLOTSETTINGS
350
19
  3
ACAD_PLOTSTYLENAME
350
E
  3
ACAD_SCALELIST
350
3D
  3
ACAD_TABLESTYLE
350
128
  3
ACAD_VISUALSTYLE
350
2A
  3
AcDbVariableDictionary
350
126
  0
DICTIONARY
  5
D
102
{ACAD_REACTORS
330
C
102
}
330
C
100
AcDbDictionary
281
     1
  0
DICTIONARY
  5
1A
102
{ACAD_REACTORS
330
C
102
}
330
C
100
AcDbDictionary
281
     1
  3
Layout1
350
1E
  3
Layout2
350
26
  3
Model
350
22
  0
DICTIONARY
  5
129
102
{ACAD_REACTORS
330
C
102
}
330
C
100
AcDbDictionary
281
     1
  0
DICTIONARY
  5
17
102
{ACAD_REACTORS
330
C
102
}
330
C
100
AcDbDictionary
281
     1
  3
Standard
350
18
  0
DICTIONARY
  5
19
102
{ACAD_REACTORS
330
C
102
}
330
C
100
AcDbDictionary
281
     1
  0
ACDBDICTIONARYWDFLT
  5
E
102
{ACAD_REACTORS
330
C
102
}
330
C
100
AcDbDictionary
281
     1
  3
Normal
350
F
100
AcDbDictionaryWithDefault
340
F
  0
DICTIONARY
  5
3D
102
{ACAD_REACTORS
330
C
102
}
330
C
100
AcDbDictionary
281
     1
  3
A0
350
3E
  3
A1
350
3F
  3
A2
350
40
  3
A3
350
41
  3
A4
350
42
  3
A5
350
43
  3
A6
350
44
  3
A7
350
45
  3
A8
350
46
  3
A9
350
47
  3
B0
350
48
  3
B1
350
49
  3
B2
350
4A
  3
B3
350
4B
  3
B4
350
4C
  3
B5
350
4D
  3
B6
350
4E
  3
B7
350
4F
  3
B8
350
50
  3
B9
350
51
  3
C0
350
52
  3
C1
350
53
  3
C2
350
54
  3
C3
350
55
  3
C4
350
56
  3
C5
350
57
  3
C6
350
58
  3
C7
350
59
  3
C8
350
5A
  3
C9
350
5B
  3
D0
350
5C
  3
D1
350
5D
  3
D2
350
5E
  0
DICTIONARY
  5
128
102
{ACAD_REACTORS
330
C
102
}
330
C
100
AcDbDictionary
281
     1
  0
DICTIONARY
  5
2A
102
{ACAD_REACTORS
330
C
102
}
330
C
100
AcDbDictionary
281
     1
  3
2dWireframe
350
2F
  3
3D Hidden
350
31
  3
3dWireframe
350
30
  3
Basic
350
32
  3
Brighten
350
36
  3
ColorChange
350
3A
  3
Conceptual
350
34
  3
Dim
350
35
  3
Facepattern
350
39
  3
Flat
350
2B
  3
FlatWithEdges
350
2C
  3
Gouraud
350
2D
  3
GouraudWithEdges
350
2E
  3
Linepattern
350
38
  3
Realistic
350
33
  3
Thicken
350
37
  0
DICTIONARY
  5
126
102
{ACAD_REACTORS
330
C
102
}
330
C
100
AcDbDictionary
281
     1
  3
CANNOSCALE
350
127
  0
LAYOUT
  5
1E
102
{ACAD_REACTORS
330
1A
102
}
330
1A
100
AcDbPlotSettings
  1

  2
none_device
  4

  6

 40
0.0
 41
0.0
 42
0.0
 43
0.0
 44
0.0
 45
0.0
 46
0.0
 47
0.0
 48
0.0
 49
0.0
140
0.0
141
0.0
142
1.0
143
1.0
 70
   688
 72
     0
 73
     0
 74
     5
  7

 75
    16
 76
     0
 77
     2
 78
   300
147
1.0
148
0.0
149
0.0
100
AcDbLayout
  1
Layout1
 70
     1
 71
     1
 10
0.0
 20
0.0
 11
12.0
 21
9.0
 12
0.0
 22
0.0
 32
0.0
 14
1.000000000000000E+20
 24
1.000000000000000E+20
 34
1.000000000000000E+20
 15
-1.000000000000000E+20
 25
-1.000000000000000E+20
 35
-1.000000000000000E+20
146
0.0
 13
0.0
 23
0.0
 33
0.0
 16
1.0
 26
0.0
 36
0.0
 17
0.0
 27
1.0
 37
0.0
 76
     0
330
1B
  0
LAYOUT
  5
26
102
{ACAD_REACTORS
330
1A
102
}
330
1A
100
AcDbPlotSettings
  1

  2
none_device
  4

  6

 40
0.0
 41
0.0
 42
0.0
 43
0.0
 44
0.0
 45
0.0
 46
0.0
 47
0.0
 48
0.0
 49
0.0
140
0.0
141
0.0
142
1.0
143
1.0
 70
   688
 72
     0
 73
     0
 74
     5
  7

 75
    16
 76
     0
 77
     2
 78
   300
147
1.0
148
0.0
149
0.0
100
AcDbLayout
  1
Layout2
 70
     1
 71
     2
 10
0.0
 20
0.0
 11
0.0
 21
0.0
 12
0.0
 22
0.0
 32
0.0
 14
0.0
 24
0.0
 34
0.0
 15
0.0
 25
0.0
 35
0.0
146
0.0
 13
0.0
 23
0.0
 33
0.0
 16
1.0
 26
0.0
 36
0.0
 17
0.0
 27
1.0
 37
0.0
 76
     0
330
23
  0
LAYOUT
  5
22
102
{ACAD_REACTORS
330
1A
102
}
330
1A
100
AcDbPlotSettings
  1

  2
none_device
  4

  6

 40
0.0
 41
0.0
 42
0.0
 43
0.0
 44
0.0
 45
0.0
 46
0.0
 47
0.0
 48
0.0
 49
0.0
140
0.0
141
0.0
142
1.0
143
1.0
 70
  1712
 72
     0
 73
     0
 74
     0
  7

 75
     0
 76
     0
 77
     2
 78
   300
147
1.0
148
0.0
149
0.0
100
AcDbLayout
  1
Model
 70
     1
 71
     0
 10
0.0
 20
0.0
 11
12.0
 21
9.0
 12
0.0
 22
0.0
 32
0.0
 14
2820.723611292545
 24
1326.0
 34
0.0
 15
4021.150019512991
 25
3636.725147419386
 35
0.0
146
0.0
 13
0.0
 23
0.0
 33
0.0
 16
1.0
 26
0.0
 36
0.0
 17
0.0
 27
1.0
 37
0.0
 76
     0
330
1F
331
29
  0
MLINESTYLE
  5
18
102
{ACAD_REACTORS
330
17
102
}
330
17
100
AcDbMlineStyle
  2
Standard
 70
     0
  3

 62
   256
 51
90.0
 52
90.0
 71
     2
 49
0.5
 62
   256
  6
BYLAYER
 49
-0.5
 62
   256
  6
BYLAYER
  0
ACDBPLACEHOLDER
  5
F
102
{ACAD_REACTORS
330
E
102
}
330
E
  0
SCALE
  5
3E
102
{ACAD_REACTORS
330
3D
102
}
330
3D
100
AcDbScale
 70
     0
300
1:1
140
1.0
141
1.0
290
     1
  0
SCALE
  5
3F
102
{ACAD_REACTORS
330
3D
102
}
330
3D
100
AcDbScale
 70
     0
300
1:2
140
1.0
141
2.0
290
     0
  0
SCALE
  5
40
102
{ACAD_REACTORS
330
3D
102
}
330
3D
100
AcDbScale
 70
     0
300
1:4
140
1.0
141
4.0
290
     0
  0
SCALE
  5
41
102
{ACAD_REACTORS
330
3D
102
}
330
3D
100
AcDbScale
 70
     0
300
1:5
140
1.0
141
5.0
290
     0
  0
SCALE
  5
42
102
{ACAD_REACTORS
330
3D
102
}
330
3D
100
AcDbScale
 70
     0
300
1:8
140
1.0
141
8.0
290
     0
  0
SCALE
  5
43
102
{ACAD_REACTORS
330
3D
102
}
330
3D
100
AcDbScale
 70
     0
300
1:10
140
1.0
141
10.0
290
     0
  0
SCALE
  5
44
102
{ACAD_REACTORS
330
3D
102
}
330
3D
100
AcDbScale
 70
     0
300
1:16
140
1.0
141
16.0
290
     0
  0
SCALE
  5
45
102
{ACAD_REACTORS
330
3D
102
}
330
3D
100
AcDbScale
 70
     0
300
1:20
140
1.0
141
20.0
290
     0
  0
SCALE
  5
46
102
{ACAD_REACTORS
330
3D
102
}
330
3D
100
AcDbScale
 70
     0
300
1:30
140
1.0
141
30.0
290
     0
  0
SCALE
  5
47
102
{ACAD_REACTORS
330
3D
102
}
330
3D
100
AcDbScale
 70
     0
300
1:40
140
1.0
141
40.0
290
     0
  0
SCALE
  5
48
102
{ACAD_REACTORS
330
3D
102
}
330
3D
100
AcDbScale
 70
     0
300
1:50
140
1.0
141
50.0
290
     0
  0
SCALE
  5
49
102
{ACAD_REACTORS
330
3D
102
}
330
3D
100
AcDbScale
 70
     0
300
1:100
140
1.0
141
100.0
290
     0
  0
SCALE
  5
4A
102
{ACAD_REACTORS
330
3D
102
}
330
3D
100
AcDbScale
 70
     0
300
2:1
140
2.0
141
1.0
290
     0
  0
SCALE
  5
4B
102
{ACAD_REACTORS
330
3D
102
}
330
3D
100
AcDbScale
 70
     0
300
4:1
140
4.0
141
1.0
290
     0
  0
SCALE
  5
4C
102
{ACAD_REACTORS
330
3D
102
}
330
3D
100
AcDbScale
 70
     0
300
8:1
140
8.0
141
1.0
290
     0
  0
SCALE
  5
4D
102
{ACAD_REACTORS
330
3D
102
}
330
3D
100
AcDbScale
 70
     0
300
10:1
140
10.0
141
1.0
290
     0
  0
SCALE
  5
4E
102
{ACAD_REACTORS
330
3D
102
}
330
3D
100
AcDbScale
 70
     0
300
100:1
140
100.0
141
1.0
290
     0
  0
SCALE
  5
4F
102
{ACAD_REACTORS
330
3D
102
}
330
3D
100
AcDbScale
 70
     0
300
1/128" = 1'-0"
140
0.0078125
141
12.0
290
     0
  0
SCALE
  5
50
102
{ACAD_REACTORS
330
3D
102
}
330
3D
100
AcDbScale
 70
     0
300
1/64" = 1'-0"
140
0.015625
141
12.0
290
     0
  0
SCALE
  5
51
102
{ACAD_REACTORS
330
3D
102
}
330
3D
100
AcDbScale
 70
     0
300
1/32" = 1'-0"
140
0.03125
141
12.0
290
     0
  0
SCALE
  5
52
102
{ACAD_REACTORS
330
3D
102
}
330
3D
100
AcDbScale
 70
     0
300
1/16" = 1'-0"
140
0.0625
141
12.0
290
     0
  0
SCALE
  5
53
102
{ACAD_REACTORS
330
3D
102
}
330
3D
100
AcDbScale
 70
     0
300
3/32" = 1'-0"
140
0.09375
141
12.0
290
     0
  0
SCALE
  5
54
102
{ACAD_REACTORS
330
3D
102
}
330
3D
100
AcDbScale
 70
     0
300
1/8" = 1'-0"
140
0.125
141
12.0
290
     0
  0
SCALE
  5
55
102
{ACAD_REACTORS
330
3D
102
}
330
3D
100
AcDbScale
 70
     0
300
3/16" = 1'-0"
140
0.1875
141
12.0
290
     0
  0
SCALE
  5
56
102
{ACAD_REACTORS
330
3D
102
}
330
3D
100
AcDbScale
 70
     0
300
1/4" = 1'-0"
140
0.25
141
12.0
290
     0
  0
SCALE
  5
57
102
{ACAD_REACTORS
330
3D
102
}
330
3D
100
AcDbScale
 70
     0
300
3/8" = 1'-0"
140
0.375
141
12.0
290
     0
  0
SCALE
  5
58
102
{ACAD_REACTORS
330
3D
102
}
330
3D
100
AcDbScale
 70
     0
300
1/2" = 1'-0"
140
0.5
141
12.0
290
     0
  0
SCALE
  5
59
102
{ACAD_REACTORS
330
3D
102
}
330
3D
100
AcDbScale
 70
     0
300
3/4" = 1'-0"
140
0.75
141
12.0
290
     0
  0
SCALE
  5
5A
102
{ACAD_REACTORS
330
3D
102
}
330
3D
100
AcDbScale
 70
     0
300
1" = 1'-0"
140
1.0
141
12.0
290
     0
  0
SCALE
  5
5B
102
{ACAD_REACTORS
330
3D
102
}
330
3D
100
AcDbScale
 70
     0
300
1-1/2" = 1'-0"
140
1.5
141
12.0
290
     0
  0
SCALE
  5
5C
102
{ACAD_REACTORS
330
3D
102
}
330
3D
100
AcDbScale
 70
     0
300
3" = 1'-0"
140
3.0
141
12.0
290
     0
  0
SCALE
  5
5D
102
{ACAD_REACTORS
330
3D
102
}
330
3D
100
AcDbScale
 70
     0
300
6" = 1'-0"
140
6.0
141
12.0
290
     0
  0
SCALE
  5
5E
102
{ACAD_REACTORS
330
3D
102
}
330
3D
100
AcDbScale
 70
     0
300
1'-0" = 1'-0"
140
12.0
141
12.0
290
     0
  0
VISUALSTYLE
  5
2F
102
{ACAD_REACTORS
330
2A
102
}
330
2A
100
AcDbVisualStyle
  2
2dWireframe
 70
     4
 71
     0
 72
     2
 73
     0
 90
        0
 40
-0.6
 41
-30.0
 62
     5
 63
     7
421
 16777215
 74
     1
 91
        4
 64
     7
 65
   257
 75
     1
175
     1
 42
1.0
 92
        0
 66
   257
 43
1.0
 76
     1
 77
     6
 78
     2
 67
     7
 79
     5
170
     0
171
     0
290
     0
174
     0
 93
        1
 44
0.0
173
     0
291
     0
 45
0.0
1001
ACAD
1000
AcDbSavedByObjectVersion
1070
     0
  0
VISUALSTYLE
  5
31
102
{ACAD_REACTORS
330
2A
102
}
330
2A
100
AcDbVisualStyle
  2
3D Hidden
 70
     6
 71
     1
 72
     2
 73
     2
 90
        0
 40
-0.6
 41
-30.0
 62
     5
 63
     7
421
 16777215
 74
     2
 91
        2
 64
     7
 65
   257
 75
     2
175
     1
 42
40.0
 92
        0
 66
   257
 43
1.0
 76
     1
 77
     6
 78
     2
 67
     7
 79
     3
170
     0
171
     0
290
     0
174
     0
 93
        1
 44
0.0
173
     0
291
     0
 45
0.0
1001
ACAD
1000
AcDbSavedByObjectVersion
1070
     0
  0
VISUALSTYLE
  5
30
102
{ACAD_REACTORS
330
2A
102
}
330
2A
100
AcDbVisualStyle
  2
3dWireframe
 70
     5
 71
     0
 72
     2
 73
     0
 90
        0
 40
-0.6
 41
-30.0
 62
     5
 63
     7
421
 16777215
 74
     1
 91
        4
 64
     7
 65
   257
 75
     1
175
     1
 42
1.0
 92
        0
 66
   257
 43
1.0
 76
     1
 77
     6
 78
     2
 67
     7
 79
     5
170
     0
171
     0
290
     0
174
     0
 93
        1
 44
0.0
173
     0
291
     0
 45
0.0
1001
ACAD
1000
AcDbSavedByObjectVersion
1070
     0
  0
VISUALSTYLE
  5
32
102
{ACAD_REACTORS
330
2A
102
}
330
2A
100
AcDbVisualStyle
  2
Basic
 70
     7
 71
     1
 72
     0
 73
     1
 90
        0
 40
-0.6
 41
-30.0
 62
     5
 63
     7
421
 16777215
 74
     0
 91
        4
 64
     7
 65
   257
 75
     1
175
     1
 42
1.0
 92
        8
 66
     7
 43
1.0
 76
     1
 77
     6
 78
     2
 67
     7
 79
     5
170
     0
171
     0
290
     0
174
     0
 93
        1
 44
0.0
173
     0
291
     1
 45
0.0
1001
ACAD
1000
AcDbSavedByObjectVersion
1070
     0
  0
VISUALSTYLE
  5
36
102
{ACAD_REACTORS
330
2A
102
}
330
2A
100
AcDbVisualStyle
  2
Brighten
 70
    12
 71
     2
 72
     2
 73
     0
 90
        0
 40
-0.6
 41
-30.0
 62
     5
 63
     7
421
 16777215
 74
     1
 91
        4
 64
     7
 65
   257
 75
     1
175
     1
 42
1.0
 92
        8
 66
     7
 43
1.0
 76
     1
 77
     6
 78
     2
 67
     7
 79
     5
170
     0
171
     0
290
     0
174
     0
 93
        1
 44
50.0
173
     0
291
     1
 45
0.0
1001
ACAD
1000
AcDbSavedByObjectVersion
1070
     0
  0
VISUALSTYLE
  5
3A
102
{ACAD_REACTORS
330
2A
102
}
330
2A
100
AcDbVisualStyle
  2
ColorChange
 70
    16
 71
     2
 72
     2
 73
     3
 90
        0
 40
-0.6
 41
-30.0
 62
     5
 63
     8
421
  8421504
 74
     1
 91
        4
 64
     7
 65
   257
 75
     1
175
     1
 42
1.0
 92
        8
 66
     8
424
  8421504
 43
1.0
 76
     1
 77
     6
 78
     2
 67
     7
 79
     5
170
     0
171
     0
290
     0
174
     0
 93
        1
 44
0.0
173
     0
291
     1
 45
0.0
1001
ACAD
1000
AcDbSavedByObjectVersion
1070
     0
  0
VISUALSTYLE
  5
34
102
{ACAD_REACTORS
330
2A
102
}
330
2A
100
AcDbVisualStyle
  2
Conceptual
 70
     9
 71
     3
 72
     2
 73
     0
 90
        0
 40
-0.6
 41
-30.0
 62
     5
 63
     7
421
 16777215
 74
     2
 91
        2
 64
     7
 65
   257
 75
     1
175
     1
 42
40.0
 92
        8
 66
     7
 43
1.0
 76
     1
 77
     6
 78
     2
 67
     7
 79
     3
170
     0
171
     0
290
     0
174
     0
 93
        1
 44
0.0
173
     0
291
     0
 45
0.0
1001
ACAD
1000
AcDbSavedByObjectVersion
1070
     0
  0
VISUALSTYLE
  5
35
102
{ACAD_REACTORS
330
2A
102
}
330
2A
100
AcDbVisualStyle
  2
Dim
 70
    11
 71
     2
 72
     2
 73
     0
 90
        0
 40
-0.6
 41
-30.0
 62
     5
 63
     7
421
 16777215
 74
     1
 91
        4
 64
     7
 65
   257
 75
     1
175
     1
 42
1.0
 92
        8
 66
     7
 43
1.0
 76
     1
 77
     6
 78
     2
 67
     7
 79
     5
170
     0
171
     0
290
     0
174
     0
 93
        1
 44
-50.0
173
     0
291
     1
 45
0.0
1001
ACAD
1000
AcDbSavedByObjectVersion
1070
     0
  0
VISUALSTYLE
  5
39
102
{ACAD_REACTORS
330
2A
102
}
330
2A
100
AcDbVisualStyle
  2
Facepattern
 70
    15
 71
     2
 72
     2
 73
     0
 90
        0
 40
-0.6
 41
-30.0
 62
     5
 63
     7
421
 16777215
 74
     1
 91
        4
 64
     7
 65
   257
 75
     1
175
     1
 42
1.0
 92
        8
 66
     7
 43
1.0
 76
     1
 77
     6
 78
     2
 67
     7
 79
     5
170
     0
171
     0
290
     0
174
     0
 93
        1
 44
0.0
173
     0
291
     1
 45
0.0
1001
ACAD
1000
AcDbSavedByObjectVersion
1070
     0
  0
VISUALSTYLE
  5
2B
102
{ACAD_REACTORS
330
2A
102
}
330
2A
100
AcDbVisualStyle
  2
Flat
 70
     0
 71
     2
 72
     1
 73
     1
 90
        2
 40
-0.6
 41
30.0
 62
     5
 63
     7
421
 16777215
 74
     0
 91
        4
 64
     7
 65
   257
 75
     1
175
     1
 42
1.0
 92
        8
 66
     7
 43
1.0
 76
     1
 77
     6
 78
     2
 67
     7
 79
     5
170
     0
171
     0
290
     0
174
     0
 93
       13
 44
0.0
173
     0
291
     1
 45
0.0
1001
ACAD
1000
AcDbSavedByObjectVersion
1070
     0
  0
VISUALSTYLE
  5
2C
102
{ACAD_REACTORS
330
2A
102
}
330
2A
100
AcDbVisualStyle
  2
FlatWithEdges
 70
     1
 71
     2
 72
     1
 73
     1
 90
        2
 40
-0.6
 41
30.0
 62
     5
 63
     7
421
 16777215
 74
     1
 91
        4
 64
     7
 65
   257
 75
     1
175
     1
 42
1.0
 92
        0
 66
   257
 43
1.0
 76
     1
 77
     6
 78
     2
 67
     7
 79
     5
170
     0
171
     0
290
     0
174
     0
 93
       13
 44
0.0
173
     0
291
     1
 45
0.0
1001
ACAD
1000
AcDbSavedByObjectVersion
1070
     0
  0
VISUALSTYLE
  5
2D
102
{ACAD_REACTORS
330
2A
102
}
330
2A
100
AcDbVisualStyle
  2
Gouraud
 70
     2
 71
     2
 72
     2
 73
     1
 90
        2
 40
-0.6
 41
30.0
 62
     5
 63
     7
421
 16777215
 74
     0
 91
        4
 64
     7
 65
   257
 75
     1
175
     1
 42
1.0
 92
        0
 66
     7
 43
1.0
 76
     1
 77
     6
 78
     2
 67
     7
 79
     5
170
     0
171
     0
290
     0
174
     0
 93
       13
 44
0.0
173
     0
291
     1
 45
0.0
1001
ACAD
1000
AcDbSavedByObjectVersion
1070
     0
  0
VISUALSTYLE
  5
2E
102
{ACAD_REACTORS
330
2A
102
}
330
2A
100
AcDbVisualStyle
  2
GouraudWithEdges
 70
     3
 71
     2
 72
     2
 73
     1
 90
        2
 40
-0.6
 41
30.0
 62
     5
 63
     7
421
 16777215
 74
     1
 91
        4
 64
     7
 65
   257
 75
     1
175
     1
 42
1.0
 92
        0
 66
   257
 43
1.0
 76
     1
 77
     6
 78
     2
 67
     7
 79
     5
170
     0
171
     0
290
     0
174
     0
 93
       13
 44
0.0
173
     0
291
     1
 45
0.0
1001
ACAD
1000
AcDbSavedByObjectVersion
1070
     0
  0
VISUALSTYLE
  5
38
102
{ACAD_REACTORS
330
2A
102
}
330
2A
100
AcDbVisualStyle
  2
Linepattern
 70
    14
 71
     2
 72
     2
 73
     0
 90
        0
 40
-0.6
 41
-30.0
 62
     5
 63
     7
421
 16777215
 74
     1
 91
        4
 64
     7
 65
   257
 75
     7
175
     7
 42
1.0
 92
        8
 66
     7
 43
1.0
 76
     1
 77
     6
 78
     2
 67
     7
 79
     5
170
     0
171
     0
290
     0
174
     0
 93
        1
 44
0.0
173
     0
291
     1
 45
0.0
1001
ACAD
1000
AcDbSavedByObjectVersion
1070
     0
  0
VISUALSTYLE
  5
33
102
{ACAD_REACTORS
330
2A
102
}
330
2A
100
AcDbVisualStyle
  2
Realistic
 70
     8
 71
     2
 72
     2
 73
     0
 90
        0
 40
-0.6
 41
-30.0
 62
     5
 63
     7
421
 16777215
 74
     1
 91
        0
 64
     7
 65
   257
 75
     1
175
     1
 42
1.0
 92
        8
 66
     8
424
  7895160
 43
1.0
 76
     1
 77
     6
 78
     2
 67
     7
 79
     5
170
     0
171
     0
290
     0
174
     0
 93
       13
 44
0.0
173
     0
291
     0
 45
0.0
1001
ACAD
1000
AcDbSavedByObjectVersion
1070
     0
  0
VISUALSTYLE
  5
37
102
{ACAD_REACTORS
330
2A
102
}
330
2A
100
AcDbVisualStyle
  2
Thicken
 70
    13
 71
     2
 72
     2
 73
     0
 90
        0
 40
-0.6
 41
-30.0
 62
     5
 63
     7
421
 16777215
 74
     1
 91
        4
 64
     7
 65
   257
 75
     1
175
     1
 42
1.0
 92
       12
 66
     7
 43
1.0
 76
     1
 77
     6
 78
     2
 67
     7
 79
     5
170
     0
171
     0
290
     0
174
     0
 93
        1
 44
0.0
173
     0
291
     1
 45
0.0
1001
ACAD
1000
AcDbSavedByObjectVersion
1070
     0
  0
DICTIONARYVAR
  5
127
102
{ACAD_REACTORS
330
126
102
}
330
126
100
DictionaryVariables
280
     0
  1
1:1
  0
ENDSEC
  0
EOF
