  0
SECTION
  2
HEADER
  9
$ACADVER
  1
AC1009
  9
$INSBASE
 10
0.0
 20
0.0
 30
0.0
  9
$EXTMIN
 10
19.048359000000001
 20
-58.358728999999997
 30
-0.0000003915693334
  9
$EXTMAX
 10
132.22608799999989
 20
81.5
 30
1.0
  9
$LIMMIN
 10
0.0
 20
0.0
  9
$LIMMAX
 10
0.0
 20
0.0
  9
$ORTHOMODE
 70
     0
  9
$REGENMODE
 70
     1
  9
$FILLMODE
 70
     1
  9
$QTEXTMODE
 70
     0
  9
$MIRRTEXT
 70
     1
  9
$DRAGMODE
 70
     2
  9
$LTSCALE
 40
1.0
  9
$OSMODE
 70
    37
  9
$ATTMODE
 70
     1
  9
$TEXTSIZE
 40
0.0
  9
$TRACEWID
 40
0.05
  9
$TEXTSTYLE
  7
STANDARD
  9
$CLAYER
  8
0
  9
$CELTYPE
  6
BYLAYER
  9
$CECOLOR
 62
   256
  9
$DIMSCALE
 40
1.0
  9
$DIMASZ
 40
0.18
  9
$DIMEXO
 40
0.0625
  9
$DIMDLI
 40
0.38
  9
$DIMRND
 40
0.0
  9
$DIMDLE
 40
0.0
  9
$DIMEXE
 40
0.18
  9
$DIMTP
 40
0.0
  9
$DIMTM
 40
0.0
  9
$DIMTXT
 40
0.18
  9
$DIMCEN
 40
0.09
  9
$DIMTSZ
 40
0.0
  9
$DIMTOL
 70
     0
  9
$DIMLIM
 70
     0
  9
$DIMTIH
 70
     1
  9
$DIMTOH
 70
     1
  9
$DIMSE1
 70
     0
  9
$DIMSE2
 70
     0
  9
$DIMTAD
 70
     0
  9
$DIMZIN
 70
     0
  9
$DIMBLK
  1

  9
$DIMASO
 70
     1
  9
$DIMSHO
 70
     1
  9
$DIMPOST
  1

  9
$DIMAPOST
  1

  9
$DIMALT
 70
     0
  9
$DIMALTD
 70
     2
  9
$DIMALTF
 40
25.399999999999999
  9
$DIMLFAC
 40
1.0
  9
$DIMTOFL
 70
     0
  9
$DIMTVP
 40
0.0
  9
$DIMTIX
 70
     0
  9
$DIMSOXD
 70
     0
  9
$DIMSAH
 70
     0
  9
$DIMBLK1
  1

  9
$DIMBLK2
  1

  9
$DIMSTYLE
  2
STANDARD
  9
$DIMCLRD
 70
     0
  9
$DIMCLRE
 70
     0
  9
$DIMCLRT
 70
     0
  9
$DIMTFAC
 40
1.0
  9
$DIMGAP
 40
0.09
  9
$LUNITS
 70
     2
  9
$LUPREC
 70
     4
  9
$SKETCHINC
 40
0.1
  9
$FILLETRAD
 40
0.0
  9
$AUNITS
 70
     0
  9
$AUPREC
 70
     0
  9
$MENU
  1
acad
  9
$ELEVATION
 40
0.0
  9
$PELEVATION
 40
0.0
  9
$THICKNESS
 40
0.0
  9
$LIMCHECK
 70
     0
  9
$BLIPMODE
 70
     0
  9
$CHAMFERA
 40
0.0
  9
$CHAMFERB
 40
0.0
  9
$SKPOLY
 70
     0
  9
$TDCREATE
 40
2454160.7187772342
  9
$TDUPDATE
 40
2454160.7189224539
  9
$TDINDWG
 40
0.0001459491
  9
$TDUSRTIMER
 40
0.0001459491
  9
$USRTIMER
 70
     1
  9
$ANGBASE
 50
0.0
  9
$ANGDIR
 70
     0
  9
$PDMODE
 70
     0
  9
$PDSIZE
 40
0.0
  9
$PLINEWID
 40
0.0
  9
$COORDS
 70
     0
  9
$SPLFRAME
 70
     0
  9
$SPLINETYPE
 70
     6
  9
$SPLINESEGS
 70
     8
  9
$ATTDIA
 70
     0
  9
$ATTREQ
 70
     1
  9
$HANDLING
 70
     1
  9
$HANDSEED
  5
387
  9
$SURFTAB1
 70
     6
  9
$SURFTAB2
 70
     6
  9
$SURFTYPE
 70
     6
  9
$SURFU
 70
     6
  9
$SURFV
 70
     6
  9
$UCSNAME
  2

  9
$UCSORG
 10
0.0
 20
0.0
 30
0.0
  9
$UCSXDIR
 10
1.0
 20
0.0
 30
0.0
  9
$UCSYDIR
 10
0.0
 20
1.0
 30
0.0
  9
$PUCSNAME
  2

  9
$PUCSORG
 10
0.0
 20
0.0
 30
0.0
  9
$PUCSXDIR
 10
1.0
 20
0.0
 30
0.0
  9
$PUCSYDIR
 10
0.0
 20
1.0
 30
0.0
  9
$USERI1
 70
     0
  9
$USERI2
 70
     0
  9
$USERI3
 70
     0
  9
$USERI4
 70
     0
  9
$USERI5
 70
     0
  9
$USERR1
 40
0.0
  9
$USERR2
 40
0.0
  9
$USERR3
 40
0.0
  9
$USERR4
 40
0.0
  9
$USERR5
 40
0.0
  9
$WORLDVIEW
 70
     1
  9
$SHADEDGE
 70
     3
  9
$SHADEDIF
 70
    70
  9
$TILEMODE
 70
     1
  9
$MAXACTVP
 70
    16
  9
$PLIMCHECK
 70
     0
  9
$PEXTMIN
 10
1.0000000000000000E+020
 20
1.0000000000000000E+020
 30
1.0000000000000000E+020
  9
$PEXTMAX
 10
-1.0000000000000000E+020
 20
-1.0000000000000000E+020
 30
-1.0000000000000000E+020
  9
$PLIMMIN
 10
0.0
 20
0.0
  9
$PLIMMAX
 10
12.0
 20
9.0
  9
$UNITMODE
 70
     0
  9
$VISRETAIN
 70
     0
  9
$PLINEGEN
 70
     1
  9
$PSLTSCALE
 70
     0
  0
ENDSEC
  0
SECTION
  2
TABLES
  0
TABLE
  2
VPORT
 70
     2
  0
VPORT
  2
*ACTIVE
 70
     0
 10
0.0
 20
0.0
 11
1.0
 21
1.0
 12
66.113043999999974
 22
11.570635499999989
 13
0.0
 23
0.0
 14
1.0
 24
1.0
 15
0.0
 25
0.0
 16
0.0
 26
0.0
 36
1.0
 17
0.0
 27
0.0
 37
0.0
 40
141.18860597939769
 41
1.704761904761904
 42
50.0
 43
0.0
 44
0.0
 50
0.0
 51
0.0
 71
     0
 72
   100
 73
     1
 74
     1
 75
     0
 76
     0
 77
     0
 78
     0
  0
ENDTAB
  0
TABLE
  2
LTYPE
 70
     1
  0
LTYPE
  2
CONTINUOUS
 70
     0
  3
Solid line
 72
    65
 73
     0
 40
0.0
  0
ENDTAB
  0
TABLE
  2
LAYER
 70
     1
  0
LAYER
  2
0
 70
     0
 62
     7
  6
CONTINUOUS
  0
ENDTAB
  0
TABLE
  2
STYLE
 70
     1
  0
STYLE
  2
STANDARD
 70
     0
 40
0.0
 41
1.0
 50
0.0
 71
     0
 42
0.0
  3
txt
  4

  0
ENDTAB
  0
TABLE
  2
VIEW
 70
     0
  0
ENDTAB
  0
TABLE
  2
UCS
 70
     0
  0
ENDTAB
  0
TABLE
  2
APPID
 70
     2
  0
APPID
  2
ACAD
 70
     0
  0
APPID
  2
DCO15
 70
     0
  0
ENDTAB
  0
TABLE
  2
DIMSTYLE
 70
     1
  0
DIMSTYLE
  2
STANDARD
 70
     0
  3

  4

  5

  6

  7

 40
1.0
 41
0.18
 42
0.0625
 43
0.38
 44
0.18
 45
0.0
 46
0.0
 47
0.0
 48
0.0
140
0.18
141
0.09
142
0.0
143
25.399999999999999
144
1.0
145
0.0
146
1.0
147
0.09
 71
     0
 72
     0
 73
     1
 74
     1
 75
     0
 76
     0
 77
     0
 78
     0
170
     0
171
     2
172
     0
173
     0
174
     0
175
     0
176
     0
177
     0
178
     0
  0
ENDTAB
  0
ENDSEC
  0
SECTION
  2
BLOCKS
  0
BLOCK
  8
0
  2
$MODEL_SPACE
 70
     0
 10
0.0
 20
0.0
 30
0.0
  3
$MODEL_SPACE
  1

  0
ENDBLK
  5
E
  8
0
  0
BLOCK
 67
     1
  8
0
  2
$PAPER_SPACE
 70
     0
 10
0.0
 20
0.0
 30
0.0
  3
$PAPER_SPACE
  1

  0
ENDBLK
  5
10
 67
     1
  8
0
  0
BLOCK
  8
0
 62
     5
  2
*D0
 70
     1
 10
0.0
 20
0.0
 30
0.0
  3
*D0
  1

  0
LINE
  5
25
  8
0
 62
     5
 10
32.837733
 20
-44.890097999999988
 30
0.0
 11
32.837733
 21
-58.358728999999997
 31
0.0
  0
LINE
  5
26
  8
0
 62
     5
 10
53.571492999999997
 20
-45.148977999999993
 30
0.0
 11
53.571492999999997
 21
-58.358728999999997
 31
0.0
  0
LINE
  5
27
  8
0
 62
     5
 10
32.837733
 20
-57.858729000000011
 30
0.0
 11
53.571492999999997
 21
-57.858729000000011
 31
0.0
  0
TEXT
  5
29
  8
0
 62
     5
 10
43.204613000000002
 20
-57.858729000000011
 30
0.0
 40
3.0
  1
21
  0
SOLID
  5
2B
  8
0
 62
     5
 10
32.837733
 20
-57.858729000000011
 30
0.0
 11
34.837733
 21
-57.358728999999997
 31
0.0
 12
34.837733
 22
-58.358728999999997
 32
0.0
 13
32.837733
 23
-57.858729000000011
 33
0.0
  0
SOLID
  5
2D
  8
0
 62
     5
 10
53.571492999999997
 20
-57.858729000000011
 30
0.0
 11
51.571492999999997
 21
-58.358728999999997
 31
0.0
 12
51.571492999999997
 22
-57.358728999999997
 32
0.0
 13
53.571492999999997
 23
-57.858729000000011
 33
0.0
  0
ENDBLK
  5
2E
  8
0
 62
     5
  0
BLOCK
  8
0
 62
     5
  2
*D1
 70
     1
 10
0.0
 20
0.0
 30
0.0
  3
*D1
  1

  0
LINE
  5
33
  8
0
 62
     5
 10
33.642601999999997
 20
68.392741000000001
 30
0.0
 11
21.548359000000001
 21
68.392741000000001
 31
0.0
  0
LINE
  5
34
  8
0
 62
     5
 10
41.863213000000002
 20
-49.588203999999998
 30
0.0
 11
21.548359000000001
 21
-49.588203999999998
 31
0.0
  0
LINE
  5
35
  8
0
 62
     5
 10
22.048359000000001
 20
68.392741000000001
 30
0.0
 11
22.048359000000001
 21
-49.588203999999998
 31
0.0
  0
TEXT
  5
37
  8
0
 62
     5
 10
22.048359000000001
 20
9.4022690000000004
 30
0.0
 40
3.0
  1
118
 50
90.0
  0
SOLID
  5
39
  8
0
 62
     5
 10
22.048359000000001
 20
68.392741000000001
 30
0.0
 11
22.548359000000001
 21
66.392741000000001
 31
0.0
 12
21.548359000000001
 22
66.392741000000001
 32
0.0
 13
22.048359000000001
 23
68.392741000000001
 33
0.0
  0
SOLID
  5
3B
  8
0
 62
     5
 10
22.048359000000001
 20
-49.588203999999998
 30
0.0
 11
21.548359000000001
 21
-47.588203999999998
 31
0.0
 12
22.548359000000001
 22
-47.588203999999998
 32
0.0
 13
22.048359000000001
 23
-49.588203999999998
 33
0.0
  0
ENDBLK
  5
3C
  8
0
 62
     5
  0
BLOCK
  8
0
 62
     5
  2
*D2
 70
     1
 10
0.0
 20
0.0
 30
0.0
  3
*D2
  1

  0
LINE
  5
34A
  8
0
 62
     5
 10
52.142601999999997
 20
68.892741000000001
 30
0.0
 11
52.142601999999997
 21
79.0
 31
0.0
  0
LINE
  5
34B
  8
0
 62
     5
 10
34.142602000000011
 20
68.892741000000001
 30
0.0
 11
34.142602000000011
 21
79.0
 31
0.0
  0
LINE
  5
34C
  8
0
 62
     5
 10
52.142601999999997
 20
78.5
 30
0.0
 11
34.142602000000011
 21
78.5
 31
0.0
  0
TEXT
  5
34E
  8
0
 62
     5
 10
43.142601999999997
 20
78.5
 30
0.0
 40
3.0
  1
18
  0
SOLID
  5
350
  8
0
 62
     5
 10
52.142601999999997
 20
78.5
 30
0.0
 11
50.142601999999997
 21
78.0
 31
0.0
 12
50.142601999999997
 22
79.0
 32
0.0
 13
52.142601999999997
 23
78.5
 33
0.0
  0
SOLID
  5
352
  8
0
 62
     5
 10
34.142602000000011
 20
78.5
 30
0.0
 11
36.142601999999997
 21
79.0
 31
0.0
 12
36.142601999999997
 22
78.0
 32
0.0
 13
34.142602000000011
 23
78.5
 33
0.0
  0
ENDBLK
  5
353
  8
0
 62
     5
  0
ENDSEC
  0
SECTION
  2
ENTITIES
  0
DIMENSION
  5
30
  8
0
 62
     5
  2
*D0
 10
53.571492999999997
 20
-57.858729000000011
 30
0.0
 11
43.204613000000002
 21
-57.858729000000011
 31
0.0
  1
<>
 13
32.837733
 23
-44.390098000000002
 33
0.0
 14
53.571492999999997
 24
-44.648978
 34
0.0
  0
DIMENSION
  5
3E
  8
0
 62
     5
  2
*D1
 10
22.048359000000001
 20
-49.588203999999998
 30
0.0
 11
22.048359000000001
 21
9.4022690000000004
 31
0.0
  1
<>
 13
34.142602000000011
 23
68.392741000000001
 33
0.0
 14
42.363213000000002
 24
-49.588203999999998
 34
0.0
 50
90.0
  0
POLYLINE
  5
3F
  8
0
 62
     7
 66
     1
 10
0.0
 20
0.0
 30
48.885444999999997
210
0.275546955789115
220
0.8238515294252181
230
-0.4953206361732573
  0
VERTEX
  5
40
  8
0
 62
     7
 10
-93.736135000000004
 20
29.024602999999999
 30
48.885444999999997
  0
VERTEX
  5
41
  8
0
 62
     7
 10
-93.159393000000009
 20
28.53049
 30
48.885444999999997
  0
VERTEX
  5
42
  8
0
 62
     7
 10
-92.593044999999975
 20
28.174022999999998
 30
48.885444999999997
  0
VERTEX
  5
43
  8
0
 62
     7
 10
-92.313770000000005
 20
28.047407
 30
48.885444999999997
  0
VERTEX
  5
44
  8
0
 62
     7
 10
-92.037092999999984
 20
27.955202
 30
48.885444999999997
  0
VERTEX
  5
45
  8
0
 62
     7
 10
-91.763014999999996
 20
27.897408000000009
 30
48.885444999999997
  0
VERTEX
  5
46
  8
0
 62
     7
 10
-91.491535999999996
 20
27.874026000000001
 30
48.885444999999997
  0
SEQEND
  5
47
  8
0
 62
     7
  0
POLYLINE
  5
48
  8
0
 62
     7
 66
     1
 10
0.0
 20
0.0
 30
39.636367
210
0.1912333675252187
220
0.9220306778933004
230
-0.3365846523069427
  0
VERTEX
  5
49
  8
0
 62
     7
 10
-100.397401
 20
15.22959
 30
39.636367
  0
VERTEX
  5
4A
  8
0
 62
     7
 10
-99.690297000000001
 20
14.764982
 30
39.636367
  0
VERTEX
  5
4B
  8
0
 62
     7
 10
-98.983974000000003
 20
14.433119
 30
39.636367
  0
VERTEX
  5
4C
  8
0
 62
     7
 10
-98.278431000000026
 20
14.234000999999999
 30
39.636367
  0
VERTEX
  5
4D
  8
0
 62
     7
 10
-97.925951999999995
 20
14.184221000000001
 30
39.636367
  0
VERTEX
  5
4E
  8
0
 62
     7
 10
-97.573668000000012
 20
14.167628000000001
 30
39.636367
  0
SEQEND
  5
4F
  8
0
 62
     7
  0
ARC
  5
50
  8
0
 62
     7
 10
131.92608799999999
 20
30.926210000000001
 30
1.0
 40
0.75
 50
90.0
 51
138.015807
  0
LINE
  5
51
  8
0
 62
     7
 10
122.92608799999999
 20
25.726209999999998
 30
1.0
 11
122.826088
 21
25.726209999999998
 31
1.0
  0
LINE
  5
52
  8
0
 62
     7
 10
122.826088
 20
19.62621
 30
1.0
 11
122.92608799999999
 21
19.62621
 31
1.0
  0
POLYLINE
  5
53
  8
0
 62
     7
 66
     1
 10
0.0
 20
0.0
 30
1.0
  0
VERTEX
  5
54
  8
0
 62
     7
 10
131.36859100000001
 20
13.924516000000001
 30
1.0
 42
0.212629
  0
VERTEX
  5
55
  8
0
 62
     7
 10
131.92608799999999
 20
13.676209999999999
 30
1.0
  0
VERTEX
  5
56
  8
0
 62
     7
 10
132.22608799999989
 20
13.676209999999999
 30
1.0
  0
VERTEX
  5
57
  8
0
 62
     7
 10
132.22608799999989
 20
31.676210000000001
 30
1.0
  0
VERTEX
  5
58
  8
0
 62
     7
 10
131.92608799999999
 20
31.676210000000001
 30
1.0
  0
VERTEX
  5
59
  8
0
 62
     7
 10
131.92608799999999
 20
13.676209999999999
 30
1.0
  0
SEQEND
  5
5A
  8
0
 62
     7
  0
POLYLINE
  5
5B
  8
0
 62
     7
 66
     1
 10
0.0
 20
0.0
 30
1.0
 70
     1
  0
VERTEX
  5
5C
  8
0
 62
     7
 10
122.92608799999999
 20
19.526209999999999
 30
1.0
  0
VERTEX
  5
5D
  8
0
 62
     7
 10
122.92608799999999
 20
25.82621
 30
1.0
 42
0.126782
  0
VERTEX
  5
5E
  8
0
 62
     7
 10
131.36859100000001
 20
31.427904000000002
 30
1.0
  0
VERTEX
  5
5F
  8
0
 62
     7
 10
131.36859100000001
 20
13.924516000000001
 30
1.0
 42
0.126782
  0
VERTEX
  5
60
  8
0
 62
     7
 10
122.92608799999999
 20
19.526209999999999
 30
1.0
  0
SEQEND
  5
61
  8
0
 62
     7
  0
POLYLINE
  5
62
  8
0
 62
     7
 66
     1
 10
0.0
 20
0.0
 30
1.0
 70
     1
  0
VERTEX
  5
63
  8
0
 62
     7
 10
111.92608799999999
 20
24.176210000000001
 30
1.0
  0
VERTEX
  5
64
  8
0
 62
     7
 10
111.92608799999999
 20
21.176210000000001
 30
1.0
  0
VERTEX
  5
65
  8
0
 62
     7
 10
106.92608799999999
 20
21.176210000000001
 30
1.0
  0
VERTEX
  5
66
  8
0
 62
     7
 10
106.92608799999999
 20
24.176210000000001
 30
1.0
  0
VERTEX
  5
67
  8
0
 62
     7
 10
111.92608799999999
 20
24.176210000000001
 30
1.0
  0
SEQEND
  5
68
  8
0
 62
     7
  0
POLYLINE
  5
69
  8
0
 62
     7
 66
     1
 10
0.0
 20
0.0
 30
1.0
  0
VERTEX
  5
6A
  8
0
 62
     7
 10
111.92608799999999
 20
24.176210000000001
 30
1.0
 42
0.079764
  0
VERTEX
  5
6B
  8
0
 62
     7
 10
122.826088
 20
25.926210000000001
 30
1.0
  0
VERTEX
  5
6C
  8
0
 62
     7
 10
122.826088
 20
19.426210000000001
 30
1.0
 42
0.079764
  0
VERTEX
  5
6D
  8
0
 62
     7
 10
111.92608799999999
 20
21.176210000000001
 30
1.0
  0
SEQEND
  5
6E
  8
0
 62
     7
  0
POLYLINE
  5
6F
  8
0
 62
     7
 66
     1
 10
0.0
 20
0.0
 30
0.0
  0
VERTEX
  5
70
  8
0
 62
     7
 10
103.072048
 20
21.569526
 30
0.0
  0
VERTEX
  5
71
  8
0
 62
     7
 10
104.088607
 20
21.39967
 30
0.0
  0
VERTEX
  5
72
  8
0
 62
     7
 10
104.527615
 20
24.199090000000002
 30
0.0
  0
SEQEND
  5
73
  8
0
 62
     7
  0
POLYLINE
  5
74
  8
0
 62
     7
 66
     1
 10
0.0
 20
0.0
 30
0.0
  0
VERTEX
  5
75
  8
0
 62
     7
 10
79.291546999999994
 20
10.210908
 30
0.0
  0
VERTEX
  5
76
  8
0
 62
     7
 10
79.245244
 20
10.308533000000001
 30
0.0
  0
VERTEX
  5
77
  8
0
 62
     7
 10
79.181246999999985
 20
10.473354
 30
0.0
  0
VERTEX
  5
78
  8
0
 62
     7
 10
79.145043000000001
 20
10.618220000000001
 30
0.0
  0
VERTEX
  5
79
  8
0
 62
     7
 10
79.136756000000005
 20
10.74263
 30
0.0
  0
VERTEX
  5
7A
  8
0
 62
     7
 10
79.156415999999993
 20
10.846157
 30
0.0
  0
VERTEX
  5
7B
  8
0
 62
     7
 10
79.20395400000001
 20
10.928442
 30
0.0
  0
VERTEX
  5
7C
  8
0
 62
     7
 10
79.279207999999997
 20
10.989203
 30
0.0
  0
VERTEX
  5
7D
  8
0
 62
     7
 10
79.381916000000004
 20
11.028230000000001
 30
0.0
  0
VERTEX
  5
7E
  8
0
 62
     7
 10
79.511725999999996
 20
11.045389
 30
0.0
  0
VERTEX
  5
7F
  8
0
 62
     7
 10
79.668188999999984
 20
11.040619
 30
0.0
  0
VERTEX
  5
80
  8
0
 62
     7
 10
79.850767000000005
 20
11.013939000000001
 30
0.0
  0
VERTEX
  5
81
  8
0
 62
     7
 10
80.05883
 20
10.965439
 30
0.0
  0
VERTEX
  5
82
  8
0
 62
     7
 10
80.291661000000005
 20
10.895287
 30
0.0
  0
VERTEX
  5
83
  8
0
 62
     7
 10
81.796416000000008
 20
10.23077
 30
0.0
  0
VERTEX
  5
84
  8
0
 62
     7
 10
86.983599999999996
 20
6.8911809999999987
 30
0.0
  0
VERTEX
  5
85
  8
0
 62
     7
 10
93.631958999999995
 20
1.169764
 30
0.0
  0
VERTEX
  5
86
  8
0
 62
     7
 10
94.962290999999993
 20
-0.4442880000000001
 30
0.0
  0
VERTEX
  5
87
  8
0
 62
     7
 10
95.094598000000005
 20
-0.6563680000000001
 30
0.0
  0
VERTEX
  5
88
  8
0
 62
     7
 10
95.199841000000006
 20
-0.850036
 30
0.0
  0
VERTEX
  5
89
  8
0
 62
     7
 10
95.277658000000002
 20
-1.0246269999999991
 30
0.0
  0
VERTEX
  5
8A
  8
0
 62
     7
 10
95.327780999999987
 20
-1.1795370000000001
 30
0.0
  0
VERTEX
  5
8B
  8
0
 62
     7
 10
95.350036000000003
 20
-1.3142329999999991
 30
0.0
  0
VERTEX
  5
8C
  8
0
 62
     7
 10
95.344346999999999
 20
-1.428250999999999
 30
0.0
  0
VERTEX
  5
8D
  8
0
 62
     7
 10
95.310732999999999
 20
-1.521196999999999
 30
0.0
  0
VERTEX
  5
8E
  8
0
 62
     7
 10
95.249310999999992
 20
-1.5927509999999989
 30
0.0
  0
VERTEX
  5
8F
  8
0
 62
     7
 10
95.160291999999998
 20
-1.642666999999999
 30
0.0
  0
VERTEX
  5
90
  8
0
 62
     7
 10
95.043982999999997
 20
-1.670771
 30
0.0
  0
VERTEX
  5
91
  8
0
 62
     7
 10
94.900783999999987
 20
-1.676968999999999
 30
0.0
  0
VERTEX
  5
92
  8
0
 62
     7
 10
94.731189999999998
 20
-1.661236999999999
 30
0.0
  0
VERTEX
  5
93
  8
0
 62
     7
 10
94.593187
 20
-1.6363859999999999
 30
0.0
  0
SEQEND
  5
94
  8
0
 62
     7
  0
POLYLINE
  5
95
  8
0
 62
     7
 66
     1
 10
0.0
 20
0.0
 30
0.0
  0
VERTEX
  5
96
  8
0
 62
     7
 10
79.306072
 20
10.294311
 30
0.0
  0
VERTEX
  5
97
  8
0
 62
     7
 10
79.262338999999983
 20
10.410685000000001
 30
0.0
  0
VERTEX
  5
98
  8
0
 62
     7
 10
79.225231999999991
 20
10.556146999999999
 30
0.0
  0
VERTEX
  5
99
  8
0
 62
     7
 10
79.216290999999998
 20
10.680985
 30
0.0
  0
VERTEX
  5
9A
  8
0
 62
     7
 10
79.235545999999999
 20
10.784758999999999
 30
0.0
  0
VERTEX
  5
9B
  8
0
 62
     7
 10
79.282929999999993
 20
10.867106
 30
0.0
  0
VERTEX
  5
9C
  8
0
 62
     7
 10
79.358277000000001
 20
10.927735
 30
0.0
  0
VERTEX
  5
9D
  8
0
 62
     7
 10
79.461321999999996
 20
10.966435000000001
 30
0.0
  0
VERTEX
  5
9E
  8
0
 62
     7
 10
79.59170300000001
 20
10.983067999999999
 30
0.0
  0
VERTEX
  5
9F
  8
0
 62
     7
 10
79.748960999999994
 20
10.977577999999999
 30
0.0
  0
VERTEX
  5
A0
  8
0
 62
     7
 10
79.932546000000002
 20
10.949982
 30
0.0
  0
VERTEX
  5
A1
  8
0
 62
     7
 10
80.141811000000004
 20
10.900378
 30
0.0
  0
VERTEX
  5
A2
  8
0
 62
     7
 10
80.376022000000006
 20
10.828939999999999
 30
0.0
  0
VERTEX
  5
A3
  8
0
 62
     7
 10
81.889570999999989
 20
10.155652999999999
 30
0.0
  0
VERTEX
  5
A4
  8
0
 62
     7
 10
87.092854000000003
 20
6.7907599999999997
 30
0.0
  0
VERTEX
  5
A5
  8
0
 62
     7
 10
93.064094999999995
 20
1.725795999999999
 30
0.0
  0
VERTEX
  5
A6
  8
0
 62
     7
 10
94.799103000000002
 20
-0.265077
 30
0.0
  0
VERTEX
  5
A7
  8
0
 62
     7
 10
94.946585999999996
 20
-0.487233
 30
0.0
  0
VERTEX
  5
A8
  8
0
 62
     7
 10
95.067014
 20
-0.691223
 30
0.0
  0
VERTEX
  5
A9
  8
0
 62
     7
 10
95.159960999999996
 20
-0.876332
 30
0.0
  0
VERTEX
  5
AA
  8
0
 62
     7
 10
95.225103000000004
 20
-1.0419080000000001
 30
0.0
  0
VERTEX
  5
AB
  8
0
 62
     7
 10
95.262208999999999
 20
-1.18737
 30
0.0
  0
VERTEX
  5
AC
  8
0
 62
     7
 10
95.271151000000003
 20
-1.312208
 30
0.0
  0
VERTEX
  5
AD
  8
0
 62
     7
 10
95.25189499999999
 20
-1.4159820000000001
 30
0.0
  0
VERTEX
  5
AE
  8
0
 62
     7
 10
95.204510999999997
 20
-1.498329
 30
0.0
  0
VERTEX
  5
AF
  8
0
 62
     7
 10
95.129163999999989
 20
-1.5589580000000001
 30
0.0
  0
VERTEX
  5
B0
  8
0
 62
     7
 10
95.026119999999992
 20
-1.597658
 30
0.0
  0
VERTEX
  5
B1
  8
0
 62
     7
 10
94.895739000000006
 20
-1.614290999999999
 30
0.0
  0
VERTEX
  5
B2
  8
0
 62
     7
 10
94.738480000000024
 20
-1.608800999999999
 30
0.0
  0
VERTEX
  5
B3
  8
0
 62
     7
 10
94.663199000000006
 20
-1.5997069999999991
 30
0.0
  0
SEQEND
  5
B4
  8
0
 62
     7
  0
POLYLINE
  5
B5
  8
0
 62
     7
 66
     1
 10
0.0
 20
0.0
 30
0.0
  0
VERTEX
  5
B6
  8
0
 62
     7
 10
99.035639000000003
 20
9.0231380000000012
 30
0.0
  0
VERTEX
  5
B7
  8
0
 62
     7
 10
100.85346699999999
 20
16.085833000000001
 30
0.0
  0
VERTEX
  5
B8
  8
0
 62
     7
 10
101.44682400000001
 20
17.632822999999998
 30
0.0
  0
VERTEX
  5
B9
  8
0
 62
     7
 10
101.451978
 20
17.662572000000001
 30
0.0
  0
VERTEX
  5
BA
  8
0
 62
     7
 10
101.444363
 20
17.736559
 30
0.0
  0
VERTEX
  5
BB
  8
0
 62
     7
 10
101.408045
 20
17.831337000000001
 30
0.0
  0
VERTEX
  5
BC
  8
0
 62
     7
 10
101.343422
 20
17.945868999999998
 30
0.0
  0
VERTEX
  5
BD
  8
0
 62
     7
 10
101.251203
 20
18.078899
 30
0.0
  0
VERTEX
  5
BE
  8
0
 62
     7
 10
101.132397
 20
18.228971000000001
 30
0.0
  0
VERTEX
  5
BF
  8
0
 62
     7
 10
100.82051
 20
18.573492000000002
 30
0.0
  0
VERTEX
  5
C0
  8
0
 62
     7
 10
100.421391
 20
18.964376000000001
 30
0.0
  0
VERTEX
  5
C1
  8
0
 62
     7
 10
98.341757999999999
 20
20.635503
 30
0.0
  0
VERTEX
  5
C2
  8
0
 62
     7
 10
97.332718
 20
21.282271999999999
 30
0.0
  0
VERTEX
  5
C3
  8
0
 62
     7
 10
96.915459000000013
 20
21.504038999999999
 30
0.0
  0
VERTEX
  5
C4
  8
0
 62
     7
 10
96.737112999999994
 20
21.58475
 30
0.0
  0
VERTEX
  5
C5
  8
0
 62
     7
 10
96.581637999999998
 20
21.644089999999998
 30
0.0
  0
VERTEX
  5
C6
  8
0
 62
     7
 10
96.450737000000004
 20
21.681411000000001
 30
0.0
  0
VERTEX
  5
C7
  8
0
 62
     7
 10
96.345844999999997
 20
21.696303
 30
0.0
  0
VERTEX
  5
C8
  8
0
 62
     7
 10
96.268109999999993
 20
21.688603000000001
 30
0.0
  0
VERTEX
  5
C9
  8
0
 62
     7
 10
96.233276000000004
 20
21.67248
 30
0.0
  0
VERTEX
  5
CA
  8
0
 62
     7
 10
95.383499999999984
 20
21.058537000000001
 30
0.0
  0
VERTEX
  5
CB
  8
0
 62
     7
 10
89.737923999999978
 20
17.751391999999999
 30
0.0
  0
VERTEX
  5
CC
  8
0
 62
     7
 10
80.792814000000007
 20
13.156559
 30
0.0
  0
VERTEX
  5
CD
  8
0
 62
     7
 10
80.488292000000001
 20
12.914479
 30
0.0
  0
VERTEX
  5
CE
  8
0
 62
     7
 10
80.209232
 20
12.649599
 30
0.0
  0
VERTEX
  5
CF
  8
0
 62
     7
 10
80.03586
 20
12.459182999999999
 30
0.0
  0
VERTEX
  5
D0
  8
0
 62
     7
 10
79.814567000000011
 20
12.179188999999999
 30
0.0
  0
VERTEX
  5
D1
  8
0
 62
     7
 10
79.609247999999994
 20
11.869979000000001
 30
0.0
  0
VERTEX
  5
D2
  8
0
 62
     7
 10
79.432810000000003
 20
11.5489
 30
0.0
  0
VERTEX
  5
D3
  8
0
 62
     7
 10
79.285356999999991
 20
11.218692000000001
 30
0.0
  0
VERTEX
  5
D4
  8
0
 62
     7
 10
79.166737999999995
 20
10.882004
 30
0.0
  0
VERTEX
  5
D5
  8
0
 62
     7
 10
79.152307999999991
 20
10.827499
 30
0.0
  0
SEQEND
  5
D6
  8
0
 62
     7
  0
POLYLINE
  5
D7
  8
0
 62
     7
 66
     1
 10
0.0
 20
0.0
 30
0.0
  0
VERTEX
  5
D8
  8
0
 62
     7
 10
81.004104999999996
 20
7.1646589999999986
 30
0.0
  0
VERTEX
  5
D9
  8
0
 62
     7
 10
79.882097999999985
 20
8.6248690000000003
 30
0.0
  0
VERTEX
  5
DA
  8
0
 62
     7
 10
79.723174
 20
8.9000190000000003
 30
0.0
  0
VERTEX
  5
DB
  8
0
 62
     7
 10
79.594298999999992
 20
9.1545349999999992
 30
0.0
  0
VERTEX
  5
DC
  8
0
 62
     7
 10
79.487170999999989
 20
9.4002169999999996
 30
0.0
  0
VERTEX
  5
DD
  8
0
 62
     7
 10
79.397754000000006
 20
9.6448509999999992
 30
0.0
  0
VERTEX
  5
DE
  8
0
 62
     7
 10
79.342002000000008
 20
9.8286660000000001
 30
0.0
  0
VERTEX
  5
DF
  8
0
 62
     7
 10
79.322902999999997
 20
9.9107889999999994
 30
0.0
  0
VERTEX
  5
E0
  8
0
 62
     7
 10
79.312900999999997
 20
10.033022000000001
 30
0.0
  0
VERTEX
  5
E1
  8
0
 62
     7
 10
79.330815000000001
 20
10.134416999999999
 30
0.0
  0
VERTEX
  5
E2
  8
0
 62
     7
 10
79.376578000000009
 20
10.214604
 30
0.0
  0
VERTEX
  5
E3
  8
0
 62
     7
 10
79.450024999999997
 20
10.273292
 30
0.0
  0
VERTEX
  5
E4
  8
0
 62
     7
 10
79.550888
 20
10.310264999999999
 30
0.0
  0
VERTEX
  5
E5
  8
0
 62
     7
 10
79.678797000000003
 20
10.325390000000001
 30
0.0
  0
VERTEX
  5
E6
  8
0
 62
     7
 10
79.833286999999999
 20
10.31861
 30
0.0
  0
VERTEX
  5
E7
  8
0
 62
     7
 10
80.013793000000007
 20
10.289949999999999
 30
0.0
  0
VERTEX
  5
E8
  8
0
 62
     7
 10
80.219656999999998
 20
10.239516
 30
0.0
  0
VERTEX
  5
E9
  8
0
 62
     7
 10
80.450128000000007
 20
10.167491
 30
0.0
  0
VERTEX
  5
EA
  8
0
 62
     7
 10
81.599981999999997
 20
9.6698960000000014
 30
0.0
  0
VERTEX
  5
EB
  8
0
 62
     7
 10
85.64873
 20
7.1733139999999986
 30
0.0
  0
VERTEX
  5
EC
  8
0
 62
     7
 10
92.419291999999984
 20
1.5938570000000001
 30
0.0
  0
VERTEX
  5
ED
  8
0
 62
     7
 10
94.13979599999999
 20
-0.360439
 30
0.0
  0
VERTEX
  5
EE
  8
0
 62
     7
 10
94.407088000000016
 20
-0.779098
 30
0.0
  0
VERTEX
  5
EF
  8
0
 62
     7
 10
94.500210999999979
 20
-0.9608709999999998
 30
0.0
  0
VERTEX
  5
F0
  8
0
 62
     7
 10
94.565832999999998
 20
-1.1233649999999991
 30
0.0
  0
VERTEX
  5
F1
  8
0
 62
     7
 10
94.603712999999999
 20
-1.265989
 30
0.0
  0
VERTEX
  5
F2
  8
0
 62
     7
 10
94.613714999999999
 20
-1.388221999999999
 30
0.0
  0
VERTEX
  5
F3
  8
0
 62
     7
 10
94.595802000000006
 20
-1.4896169999999991
 30
0.0
  0
VERTEX
  5
F4
  8
0
 62
     7
 10
94.550038000000001
 20
-1.5698039999999991
 30
0.0
  0
VERTEX
  5
F5
  8
0
 62
     7
 10
94.476590999999999
 20
-1.6284920000000001
 30
0.0
  0
VERTEX
  5
F6
  8
0
 62
     7
 10
94.375729000000007
 20
-1.665465
 30
0.0
  0
VERTEX
  5
F7
  8
0
 62
     7
 10
94.247818999999993
 20
-1.68059
 30
0.0
  0
VERTEX
  5
F8
  8
0
 62
     7
 10
94.198874999999987
 20
-1.6807559999999999
 30
0.0
  0
VERTEX
  5
F9
  8
0
 62
     7
 10
94.179132999999993
 20
-1.6788929999999991
 30
0.0
  0
VERTEX
  5
FA
  8
0
 62
     7
 10
94.234778999999989
 20
-1.6810320000000001
 30
0.0
  0
VERTEX
  5
FB
  8
0
 62
     7
 10
94.408699999999996
 20
-1.6685239999999999
 30
0.0
  0
VERTEX
  5
FC
  8
0
 62
     7
 10
94.559031999999988
 20
-1.6348860000000001
 30
0.0
  0
VERTEX
  5
FD
  8
0
 62
     7
 10
94.693988000000004
 20
-1.580449999999999
 30
0.0
  0
VERTEX
  5
FE
  8
0
 62
     7
 10
94.815126000000006
 20
-1.50431
 30
0.0
  0
VERTEX
  5
FF
  8
0
 62
     7
 10
94.919962999999996
 20
-1.4065259999999991
 30
0.0
  0
VERTEX
  5
100
  8
0
 62
     7
 10
94.948206999999996
 20
-1.366787999999999
 30
0.0
  0
SEQEND
  5
101
  8
0
 62
     7
  0
POLYLINE
  5
102
  8
0
 62
     7
 66
     1
 10
0.0
 20
0.0
 30
0.0
  0
VERTEX
  5
103
  8
0
 62
     7
 10
79.724001000000001
 20
10.979786000000001
 30
0.0
  0
VERTEX
  5
104
  8
0
 62
     7
 10
79.454823000000005
 20
10.632300000000001
 30
0.0
  0
VERTEX
  5
105
  8
0
 62
     7
 10
79.462615
 20
10.641857
 30
0.0
  0
VERTEX
  5
106
  8
0
 62
     7
 10
79.536695999999992
 20
10.701262
 30
0.0
  0
VERTEX
  5
107
  8
0
 62
     7
 10
79.638218999999992
 20
10.738936000000001
 30
0.0
  0
VERTEX
  5
108
  8
0
 62
     7
 10
79.766818000000001
 20
10.754745
 30
0.0
  0
VERTEX
  5
109
  8
0
 62
     7
 10
79.922034999999994
 20
10.748632000000001
 30
0.0
  0
VERTEX
  5
10A
  8
0
 62
     7
 10
80.103313
 20
10.720618999999999
 30
0.0
  0
VERTEX
  5
10B
  8
0
 62
     7
 10
80.310002999999995
 20
10.670806000000001
 30
0.0
  0
VERTEX
  5
10C
  8
0
 62
     7
 10
80.541365999999996
 20
10.599372000000001
 30
0.0
  0
VERTEX
  5
10D
  8
0
 62
     7
 10
81.695717999999985
 20
10.103676999999999
 30
0.0
  0
VERTEX
  5
10E
  8
0
 62
     7
 10
85.768390999999994
 20
7.6041740000000004
 30
0.0
  0
VERTEX
  5
10F
  8
0
 62
     7
 10
92.650498999999996
 20
1.9641
 30
0.0
  0
VERTEX
  5
110
  8
0
 62
     7
 10
94.452596999999983
 20
-0.047808
 30
0.0
  0
VERTEX
  5
111
  8
0
 62
     7
 10
94.745727000000016
 20
-0.486184
 30
0.0
  0
VERTEX
  5
112
  8
0
 62
     7
 10
94.852024999999983
 20
-0.678272
 30
0.0
  0
VERTEX
  5
113
  8
0
 62
     7
 10
94.930938999999995
 20
-0.851355
 30
0.0
  0
VERTEX
  5
114
  8
0
 62
     7
 10
94.982185999999984
 20
-1.0048129999999991
 30
0.0
  0
VERTEX
  5
115
  8
0
 62
     7
 10
95.005583999999999
 20
-1.1380959999999991
 30
0.0
  0
VERTEX
  5
116
  8
0
 62
     7
 10
95.001046999999986
 20
-1.2507280000000001
 30
0.0
  0
VERTEX
  5
117
  8
0
 62
     7
 10
94.968592999999998
 20
-1.342304999999999
 30
0.0
  0
VERTEX
  5
118
  8
0
 62
     7
 10
94.949905000000001
 20
-1.370298999999999
 30
0.0
  0
VERTEX
  5
119
  8
0
 62
     7
 10
95.218795
 20
-1.0231859999999999
 30
0.0
  0
SEQEND
  5
11A
  8
0
 62
     7
  0
POLYLINE
  5
11B
  8
0
 62
     7
 66
     1
 10
0.0
 20
0.0
 30
0.0
  0
VERTEX
  5
11C
  8
0
 62
     7
 10
95.211471000000003
 20
-1.6174959999999989
 30
0.0
  0
VERTEX
  5
11D
  8
0
 62
     7
 10
95.484803999999997
 20
-1.4418449999999989
 30
0.0
  0
VERTEX
  5
11E
  8
0
 62
     7
 10
95.794081000000006
 20
-1.204305999999999
 30
0.0
  0
VERTEX
  5
11F
  8
0
 62
     7
 10
96.078232999999983
 20
-0.9433740000000001
 30
0.0
  0
VERTEX
  5
120
  8
0
 62
     7
 10
96.335043999999996
 20
-0.662703
 30
0.0
  0
VERTEX
  5
121
  8
0
 62
     7
 10
96.56371
 20
-0.365151
 30
0.0
  0
VERTEX
  5
122
  8
0
 62
     7
 10
96.763722999999999
 20
-0.0535
 30
0.0
  0
VERTEX
  5
123
  8
0
 62
     7
 10
96.934792000000002
 20
0.269471
 30
0.0
  0
VERTEX
  5
124
  8
0
 62
     7
 10
97.076887999999997
 20
0.6010770000000001
 30
0.0
  0
VERTEX
  5
125
  8
0
 62
     7
 10
97.214190000000002
 20
1.0198869999999991
 30
0.0
  0
VERTEX
  5
126
  8
0
 62
     7
 10
99.030652000000003
 20
9.0228190000000001
 30
0.0
  0
VERTEX
  5
127
  8
0
 62
     7
 10
99.034094999999994
 20
9.0893669999999993
 30
0.0
  0
VERTEX
  5
128
  8
0
 62
     7
 10
99.013386999999994
 20
9.2012879999999981
 30
0.0
  0
VERTEX
  5
129
  8
0
 62
     7
 10
98.964379000000022
 20
9.333639999999999
 30
0.0
  0
VERTEX
  5
12A
  8
0
 62
     7
 10
98.887332999999998
 20
9.4857169999999993
 30
0.0
  0
VERTEX
  5
12B
  8
0
 62
     7
 10
98.782658000000012
 20
9.6567089999999993
 30
0.0
  0
VERTEX
  5
12C
  8
0
 62
     7
 10
98.650914
 20
9.8457020000000011
 30
0.0
  0
VERTEX
  5
12D
  8
0
 62
     7
 10
98.492804000000007
 20
10.051688
 30
0.0
  0
VERTEX
  5
12E
  8
0
 62
     7
 10
98.100994
 20
10.510160000000001
 30
0.0
  0
VERTEX
  5
12F
  8
0
 62
     7
 10
94.969828000000007
 20
13.377845000000001
 30
0.0
  0
VERTEX
  5
130
  8
0
 62
     7
 10
90.538340000000005
 20
16.453827
 30
0.0
  0
VERTEX
  5
131
  8
0
 62
     7
 10
89.219009
 20
17.084278999999999
 30
0.0
  0
VERTEX
  5
132
  8
0
 62
     7
 10
89.021939999999987
 20
17.147635999999999
 30
0.0
  0
VERTEX
  5
133
  8
0
 62
     7
 10
88.849879999999985
 20
17.189026999999999
 30
0.0
  0
VERTEX
  5
134
  8
0
 62
     7
 10
88.703745999999995
 20
17.208231000000001
 30
0.0
  0
VERTEX
  5
135
  8
0
 62
     7
 10
88.584316999999999
 20
17.205145999999999
 30
0.0
  0
VERTEX
  5
136
  8
0
 62
     7
 10
88.497167000000005
 20
17.182020999999999
 30
0.0
  0
SEQEND
  5
137
  8
0
 62
     7
  0
POLYLINE
  5
138
  8
0
 62
     7
 66
     1
 10
0.0
 20
0.0
 30
0.0
  0
VERTEX
  5
139
  8
0
 62
     7
 10
87.682733999999996
 20
1.985306999999999
 30
0.0
  0
VERTEX
  5
13A
  8
0
 62
     7
 10
87.664976999999993
 20
1.9714599999999991
 30
0.0
  0
VERTEX
  5
13B
  8
0
 62
     7
 10
87.609642000000008
 20
1.961603
 30
0.0
  0
VERTEX
  5
13C
  8
0
 62
     7
 10
87.527416999999986
 20
1.9740489999999999
 30
0.0
  0
VERTEX
  5
13D
  8
0
 62
     7
 10
87.419766999999993
 20
2.0085769999999989
 30
0.0
  0
VERTEX
  5
13E
  8
0
 62
     7
 10
87.288614999999993
 20
2.0645699999999998
 30
0.0
  0
VERTEX
  5
13F
  8
0
 62
     7
 10
86.965540000000004
 20
2.2365889999999991
 30
0.0
  0
VERTEX
  5
140
  8
0
 62
     7
 10
86.581152000000003
 20
2.4778820000000001
 30
0.0
  0
VERTEX
  5
141
  8
0
 62
     7
 10
85.343221
 20
3.4289049999999999
 30
0.0
  0
VERTEX
  5
142
  8
0
 62
     7
 10
85.000303999999986
 20
3.7463540000000002
 30
0.0
  0
VERTEX
  5
143
  8
0
 62
     7
 10
84.735725000000016
 20
4.0257909999999999
 30
0.0
  0
VERTEX
  5
144
  8
0
 62
     7
 10
84.63894599999999
 20
4.1449040000000004
 30
0.0
  0
VERTEX
  5
145
  8
0
 62
     7
 10
84.568286999999998
 20
4.2473589999999994
 30
0.0
  0
VERTEX
  5
146
  8
0
 62
     7
 10
84.525009999999995
 20
4.3313280000000001
 30
0.0
  0
VERTEX
  5
147
  8
0
 62
     7
 10
84.509887000000006
 20
4.3953129999999989
 30
0.0
  0
VERTEX
  5
148
  8
0
 62
     7
 10
84.523188000000005
 20
4.4381719999999989
 30
0.0
  0
SEQEND
  5
149
  8
0
 62
     7
  0
POLYLINE
  5
14A
  8
0
 62
     7
 66
     1
 10
0.0
 20
0.0
 30
0.0
  0
VERTEX
  5
14B
  8
0
 62
     7
 10
87.388188
 20
2.3804590000000001
 30
0.0
  0
VERTEX
  5
14C
  8
0
 62
     7
 10
84.976806999999994
 20
4.2484239999999991
 30
0.0
  0
SEQEND
  5
14D
  8
0
 62
     7
  0
POLYLINE
  5
14E
  8
0
 62
     7
 66
     1
 10
0.0
 20
0.0
 30
0.0
  0
VERTEX
  5
14F
  8
0
 62
     7
 10
81.115809999999996
 20
13.369984000000001
 30
0.0
  0
VERTEX
  5
150
  8
0
 62
     7
 10
81.123358999999994
 20
13.374354
 30
0.0
  0
VERTEX
  5
151
  8
0
 62
     7
 10
81.226095999999998
 20
13.413392
 30
0.0
  0
VERTEX
  5
152
  8
0
 62
     7
 10
81.355941000000001
 20
13.430555
 30
0.0
  0
VERTEX
  5
153
  8
0
 62
     7
 10
81.512446999999995
 20
13.425784999999999
 30
0.0
  0
VERTEX
  5
154
  8
0
 62
     7
 10
81.695074999999989
 20
13.399096999999999
 30
0.0
  0
VERTEX
  5
155
  8
0
 62
     7
 10
81.903193999999985
 20
13.350584
 30
0.0
  0
VERTEX
  5
156
  8
0
 62
     7
 10
82.136088000000015
 20
13.280412999999999
 30
0.0
  0
VERTEX
  5
157
  8
0
 62
     7
 10
83.641252000000009
 20
12.615715
 30
0.0
  0
VERTEX
  5
158
  8
0
 62
     7
 10
88.829846999999987
 20
9.2752179999999989
 30
0.0
  0
VERTEX
  5
159
  8
0
 62
     7
 10
95.480015000000009
 20
3.5522449999999992
 30
0.0
  0
VERTEX
  5
15A
  8
0
 62
     7
 10
96.810708000000005
 20
1.9377529999999989
 30
0.0
  0
VERTEX
  5
15B
  8
0
 62
     7
 10
96.943051000000011
 20
1.725616
 30
0.0
  0
VERTEX
  5
15C
  8
0
 62
     7
 10
97.048323999999994
 20
1.5318940000000001
 30
0.0
  0
VERTEX
  5
15D
  8
0
 62
     7
 10
97.126161999999994
 20
1.357256999999999
 30
0.0
  0
VERTEX
  5
15E
  8
0
 62
     7
 10
97.176298000000003
 20
1.202304
 30
0.0
  0
VERTEX
  5
15F
  8
0
 62
     7
 10
97.198559000000003
 20
1.0675709999999989
 30
0.0
  0
VERTEX
  5
160
  8
0
 62
     7
 10
97.192869000000002
 20
0.953523
 30
0.0
  0
VERTEX
  5
161
  8
0
 62
     7
 10
97.185192999999998
 20
0.921625
 30
0.0
  0
SEQEND
  5
162
  8
0
 62
     7
  0
POLYLINE
  5
163
  8
0
 62
     7
 66
     1
 10
0.0
 20
0.0
 30
0.0
  0
VERTEX
  5
164
  8
0
 62
     7
 10
87.632373000000001
 20
2.0826689999999992
 30
0.0
  0
VERTEX
  5
165
  8
0
 62
     7
 10
87.614719999999991
 20
2.086749999999999
 30
0.0
  0
VERTEX
  5
166
  8
0
 62
     7
 10
87.507070999999996
 20
2.1212779999999989
 30
0.0
  0
VERTEX
  5
167
  8
0
 62
     7
 10
87.375917999999999
 20
2.1772709999999988
 30
0.0
  0
VERTEX
  5
168
  8
0
 62
     7
 10
87.052843999999993
 20
2.3492899999999999
 30
0.0
  0
VERTEX
  5
169
  8
0
 62
     7
 10
86.668454999999994
 20
2.5905830000000001
 30
0.0
  0
VERTEX
  5
16A
  8
0
 62
     7
 10
85.430524999999989
 20
3.5416059999999989
 30
0.0
  0
VERTEX
  5
16B
  8
0
 62
     7
 10
85.087606999999991
 20
3.8590550000000001
 30
0.0
  0
VERTEX
  5
16C
  8
0
 62
     7
 10
84.823029000000005
 20
4.1384919999999994
 30
0.0
  0
VERTEX
  5
16D
  8
0
 62
     7
 10
84.726248999999996
 20
4.257604999999999
 30
0.0
  0
VERTEX
  5
16E
  8
0
 62
     7
 10
84.655590000000004
 20
4.3600599999999989
 30
0.0
  0
VERTEX
  5
16F
  8
0
 62
     7
 10
84.627437
 20
4.4104289999999988
 30
0.0
  0
SEQEND
  5
170
  8
0
 62
     7
  0
POLYLINE
  5
171
  8
0
 62
     7
 66
     1
 10
0.0
 20
0.0
 30
0.0
  0
VERTEX
  5
172
  8
0
 62
     7
 10
84.507846000000001
 20
4.4234239999999989
 30
0.0
  0
VERTEX
  5
173
  8
0
 62
     7
 10
84.588012000000006
 20
4.412077
 30
0.0
  0
SEQEND
  5
174
  8
0
 62
     7
  0
POLYLINE
  5
175
  8
0
 62
     7
 66
     1
 10
0.0
 20
0.0
 30
0.0
  0
VERTEX
  5
176
  8
0
 62
     7
 10
87.638509999999997
 20
2.0542790000000002
 30
0.0
  0
VERTEX
  5
177
  8
0
 62
     7
 10
87.675065000000004
 20
1.9699059999999999
 30
0.0
  0
SEQEND
  5
178
  8
0
 62
     7
  0
POLYLINE
  5
179
  8
0
 62
     7
 66
     1
 10
0.0
 20
0.0
 30
0.0
  0
VERTEX
  5
17A
  8
0
 62
     7
 10
91.287715000000006
 20
-0.7808390000000001
 30
0.0
  0
VERTEX
  5
17B
  8
0
 62
     7
 10
92.428087000000005
 20
-1.295896999999999
 30
0.0
  0
VERTEX
  5
17C
  8
0
 62
     7
 10
92.880916999999997
 20
-1.4530929999999991
 30
0.0
  0
VERTEX
  5
17D
  8
0
 62
     7
 10
93.212954000000025
 20
-1.5457149999999991
 30
0.0
  0
VERTEX
  5
17E
  8
0
 62
     7
 10
93.509714999999986
 20
-1.6098030000000001
 30
0.0
  0
VERTEX
  5
17F
  8
0
 62
     7
 10
93.789201000000006
 20
-1.6523599999999989
 30
0.0
  0
VERTEX
  5
180
  8
0
 62
     7
 10
94.061164000000005
 20
-1.675913
 30
0.0
  0
VERTEX
  5
181
  8
0
 62
     7
 10
94.187297000000001
 20
-1.6781790000000001
 30
0.0
  0
SEQEND
  5
182
  8
0
 62
     7
  0
POLYLINE
  5
183
  8
0
 62
     7
 66
     1
 10
0.0
 20
0.0
 30
0.0
  0
VERTEX
  5
184
  8
0
 62
     7
 10
104.32116499999999
 20
29.179279000000001
 30
0.0
  0
VERTEX
  5
185
  8
0
 62
     7
 10
104.32365
 20
29.182179000000001
 30
0.0
  0
VERTEX
  5
186
  8
0
 62
     7
 10
104.362481
 20
29.197679000000001
 30
0.0
  0
VERTEX
  5
187
  8
0
 62
     7
 10
104.428139
 20
29.191217000000002
 30
0.0
  0
VERTEX
  5
188
  8
0
 62
     7
 10
104.519086
 20
29.162946000000002
 30
0.0
  0
VERTEX
  5
189
  8
0
 62
     7
 10
104.633189
 20
29.113527999999999
 30
0.0
  0
VERTEX
  5
18A
  8
0
 62
     7
 10
104.91968799999999
 20
28.956351999999999
 30
0.0
  0
VERTEX
  5
18B
  8
0
 62
     7
 10
105.260932
 20
28.734341000000001
 30
0.0
  0
VERTEX
  5
18C
  8
0
 62
     7
 10
105.625113
 20
28.468185999999999
 30
0.0
  0
VERTEX
  5
18D
  8
0
 62
     7
 10
105.978289
 20
28.182694999999999
 30
0.0
  0
VERTEX
  5
18E
  8
0
 62
     7
 10
106.287541
 20
27.904478999999998
 30
0.0
  0
VERTEX
  5
18F
  8
0
 62
     7
 10
106.52404300000001
 20
27.659469000000001
 30
0.0
  0
VERTEX
  5
190
  8
0
 62
     7
 10
106.607799
 20
27.556733999999999
 30
0.0
  0
VERTEX
  5
191
  8
0
 62
     7
 10
106.665753
 20
27.470500999999999
 30
0.0
  0
VERTEX
  5
192
  8
0
 62
     7
 10
106.69654800000001
 20
27.40279000000001
 30
0.0
  0
VERTEX
  5
193
  8
0
 62
     7
 10
106.699462
 20
27.35518900000001
 30
0.0
  0
VERTEX
  5
194
  8
0
 62
     7
 10
106.69445
 20
27.340971
 30
0.0
  0
SEQEND
  5
195
  8
0
 62
     7
  0
POLYLINE
  5
196
  8
0
 62
     7
 66
     1
 10
0.0
 20
0.0
 30
0.0
  0
VERTEX
  5
197
  8
0
 62
     7
 10
101.438655
 20
17.710293
 30
0.0
  0
VERTEX
  5
198
  8
0
 62
     7
 10
104.07225099999999
 20
23.435911000000001
 30
0.0
  0
VERTEX
  5
199
  8
0
 62
     7
 10
106.69445
 20
27.340971
 30
0.0
  0
SEQEND
  5
19A
  8
0
 62
     7
  0
POLYLINE
  5
19B
  8
0
 62
     7
 66
     1
 10
0.0
 20
0.0
 30
0.0
  0
VERTEX
  5
19C
  8
0
 62
     7
 10
104.31994
 20
29.180225
 30
0.0
  0
VERTEX
  5
19D
  8
0
 62
     7
 10
100.637899
 20
25.132633999999999
 30
0.0
  0
VERTEX
  5
19E
  8
0
 62
     7
 10
96.639603000000008
 20
21.909645000000001
 30
0.0
  0
VERTEX
  5
19F
  8
0
 62
     7
 10
96.305246000000011
 20
21.686273
 30
0.0
  0
SEQEND
  5
1A0
  8
0
 62
     7
  0
POLYLINE
  5
1A1
  8
0
 62
     7
 66
     1
 10
0.0
 20
0.0
 30
0.0
  0
VERTEX
  5
1A2
  8
0
 62
     7
 10
96.337194999999994
 20
21.696545
 30
0.0
  0
VERTEX
  5
1A3
  8
0
 62
     7
 10
96.408838000000003
 20
21.704253000000001
 30
0.0
  0
VERTEX
  5
1A4
  8
0
 62
     7
 10
96.510730000000024
 20
21.690778999999999
 30
0.0
  0
VERTEX
  5
1A5
  8
0
 62
     7
 10
96.638305000000017
 20
21.655203
 30
0.0
  0
VERTEX
  5
1A6
  8
0
 62
     7
 10
96.790165000000016
 20
21.597912000000001
 30
0.0
  0
VERTEX
  5
1A7
  8
0
 62
     7
 10
97.159836000000013
 20
21.420931
 30
0.0
  0
VERTEX
  5
1A8
  8
0
 62
     7
 10
97.603585999999993
 20
21.167570999999999
 30
0.0
  0
VERTEX
  5
1A9
  8
0
 62
     7
 10
99.701426999999995
 20
19.650867000000002
 30
0.0
  0
VERTEX
  5
1AA
  8
0
 62
     7
 10
100.977462
 20
18.461407999999999
 30
0.0
  0
VERTEX
  5
1AB
  8
0
 62
     7
 10
101.23904400000001
 20
18.149025999999999
 30
0.0
  0
VERTEX
  5
1AC
  8
0
 62
     7
 10
101.3313
 20
18.017070999999991
 30
0.0
  0
VERTEX
  5
1AD
  8
0
 62
     7
 10
101.396424
 20
17.903262999999999
 30
0.0
  0
VERTEX
  5
1AE
  8
0
 62
     7
 10
101.433702
 20
17.808847
 30
0.0
  0
VERTEX
  5
1AF
  8
0
 62
     7
 10
101.44309800000001
 20
17.74128
 30
0.0
  0
SEQEND
  5
1B0
  8
0
 62
     7
  0
POLYLINE
  5
1B1
  8
0
 62
     7
 66
     1
 10
0.0
 20
0.0
 30
0.0
 70
     1
  0
VERTEX
  5
1B2
  8
0
 62
     7
 10
84.548254
 20
4.4349530000000001
 30
0.0
  0
VERTEX
  5
1B3
  8
0
 62
     7
 10
84.588523999999992
 20
4.4234279999999986
 30
0.0
  0
VERTEX
  5
1B4
  8
0
 62
     7
 10
84.710139999999996
 20
4.3782730000000001
 30
0.0
  0
VERTEX
  5
1B5
  8
0
 62
     7
 10
84.854551000000015
 20
4.3118199999999991
 30
0.0
  0
VERTEX
  5
1B6
  8
0
 62
     7
 10
85.201523999999978
 20
4.1199120000000002
 30
0.0
  0
VERTEX
  5
1B7
  8
0
 62
     7
 10
85.605796999999995
 20
3.8607829999999992
 30
0.0
  0
VERTEX
  5
1B8
  8
0
 62
     7
 10
86.878793000000002
 20
2.8721149999999991
 30
0.0
  0
VERTEX
  5
1B9
  8
0
 62
     7
 10
87.226568999999998
 20
2.5471689999999989
 30
0.0
  0
VERTEX
  5
1BA
  8
0
 62
     7
 10
87.493640999999997
 20
2.2621809999999991
 30
0.0
  0
VERTEX
  5
1BB
  8
0
 62
     7
 10
87.590973999999989
 20
2.140884999999999
 30
0.0
  0
VERTEX
  5
1BC
  8
0
 62
     7
 10
87.661810000000017
 20
2.0365729999999989
 30
0.0
  0
VERTEX
  5
1BD
  8
0
 62
     7
 10
87.669676999999993
 20
2.0231880000000002
 30
0.0
  0
VERTEX
  5
1BE
  8
0
 62
     7
 10
87.704936000000004
 20
1.9510299999999989
 30
0.0
  0
VERTEX
  5
1BF
  8
0
 62
     7
 10
87.719615000000005
 20
1.8857200000000001
 30
0.0
  0
VERTEX
  5
1C0
  8
0
 62
     7
 10
87.705595000000002
 20
1.841759999999999
 30
0.0
  0
VERTEX
  5
1C1
  8
0
 62
     7
 10
87.663117000000014
 20
1.8199019999999999
 30
0.0
  0
VERTEX
  5
1C2
  8
0
 62
     7
 10
87.592906999999997
 20
1.8205209999999989
 30
0.0
  0
VERTEX
  5
1C3
  8
0
 62
     7
 10
87.496166000000017
 20
1.8436049999999991
 30
0.0
  0
VERTEX
  5
1C4
  8
0
 62
     7
 10
87.374549999999999
 20
1.8887599999999991
 30
0.0
  0
VERTEX
  5
1C5
  8
0
 62
     7
 10
87.230139000000008
 20
1.9552130000000001
 30
0.0
  0
VERTEX
  5
1C6
  8
0
 62
     7
 10
86.883166000000003
 20
2.1471209999999989
 30
0.0
  0
VERTEX
  5
1C7
  8
0
 62
     7
 10
86.478893000000014
 20
2.40625
 30
0.0
  0
VERTEX
  5
1C8
  8
0
 62
     7
 10
85.205896999999993
 20
3.3949180000000001
 30
0.0
  0
VERTEX
  5
1C9
  8
0
 62
     7
 10
84.858120999999997
 20
3.7198649999999991
 30
0.0
  0
VERTEX
  5
1CA
  8
0
 62
     7
 10
84.591048999999984
 20
4.0048529999999989
 30
0.0
  0
VERTEX
  5
1CB
  8
0
 62
     7
 10
84.493716000000006
 20
4.126148999999999
 30
0.0
  0
VERTEX
  5
1CC
  8
0
 62
     7
 10
84.422880000000006
 20
4.230459999999999
 30
0.0
  0
VERTEX
  5
1CD
  8
0
 62
     7
 10
84.405350999999996
 20
4.2611929999999996
 30
0.0
  0
VERTEX
  5
1CE
  8
0
 62
     7
 10
84.379754000000005
 20
4.3160030000000003
 30
0.0
  0
VERTEX
  5
1CF
  8
0
 62
     7
 10
84.365075000000004
 20
4.3813129999999987
 30
0.0
  0
VERTEX
  5
1D0
  8
0
 62
     7
 10
84.379094999999992
 20
4.4252729999999998
 30
0.0
  0
VERTEX
  5
1D1
  8
0
 62
     7
 10
84.421572999999995
 20
4.4471309999999988
 30
0.0
  0
VERTEX
  5
1D2
  8
0
 62
     7
 10
84.491783999999996
 20
4.4465129999999986
 30
0.0
  0
VERTEX
  5
1D3
  8
0
 62
     7
 10
84.548254
 20
4.4349530000000001
 30
0.0
  0
SEQEND
  5
1D4
  8
0
 62
     7
  0
POLYLINE
  5
1D5
  8
0
 62
     7
 66
     1
 10
0.0
 20
0.0
 30
0.0
 70
     1
  0
VERTEX
  5
1D6
  8
0
 62
     7
 10
80.940246000000002
 20
7.234424999999999
 30
0.0
  0
VERTEX
  5
1D7
  8
0
 62
     7
 10
80.096524999999986
 20
8.3386479999999992
 30
0.0
  0
VERTEX
  5
1D8
  8
0
 62
     7
 10
79.99795300000001
 20
8.5181029999999982
 30
0.0
  0
VERTEX
  5
1D9
  8
0
 62
     7
 10
79.927227999999999
 20
8.6781929999999985
 30
0.0
  0
VERTEX
  5
1DA
  8
0
 62
     7
 10
79.884645999999989
 20
8.8182469999999995
 30
0.0
  0
VERTEX
  5
1DB
  8
0
 62
     7
 10
79.870386999999994
 20
8.937678
 30
0.0
  0
VERTEX
  5
1DC
  8
0
 62
     7
 10
79.884509999999992
 20
9.0359839999999991
 30
0.0
  0
VERTEX
  5
1DD
  8
0
 62
     7
 10
79.926955000000007
 20
9.1127539999999971
 30
0.0
  0
VERTEX
  5
1DE
  8
0
 62
     7
 10
79.997546
 20
9.1676660000000005
 30
0.0
  0
VERTEX
  5
1DF
  8
0
 62
     7
 10
80.095984999999999
 20
9.2004889999999993
 30
0.0
  0
VERTEX
  5
1E0
  8
0
 62
     7
 10
80.221859999999992
 20
9.2110850000000006
 30
0.0
  0
VERTEX
  5
1E1
  8
0
 62
     7
 10
80.374643000000006
 20
9.1994100000000003
 30
0.0
  0
VERTEX
  5
1E2
  8
0
 62
     7
 10
80.553691999999984
 20
9.1655130000000007
 30
0.0
  0
VERTEX
  5
1E3
  8
0
 62
     7
 10
80.758257999999998
 20
9.1095369999999996
 30
0.0
  0
VERTEX
  5
1E4
  8
0
 62
     7
 10
80.987482000000014
 20
9.0317150000000002
 30
0.0
  0
VERTEX
  5
1E5
  8
0
 62
     7
 10
82.130265000000009
 20
8.5098490000000009
 30
0.0
  0
VERTEX
  5
1E6
  8
0
 62
     7
 10
86.088778000000005
 20
5.985053999999999
 30
0.0
  0
VERTEX
  5
1E7
  8
0
 62
     7
 10
91.610954000000007
 20
1.3390420000000001
 30
0.0
  0
VERTEX
  5
1E8
  8
0
 62
     7
 10
92.978589999999997
 20
-0.232173
 30
0.0
  0
VERTEX
  5
1E9
  8
0
 62
     7
 10
93.118122
 20
-0.4392380000000001
 30
0.0
  0
VERTEX
  5
1EA
  8
0
 62
     7
 10
93.230469999999997
 20
-0.6280980000000001
 30
0.0
  0
VERTEX
  5
1EB
  8
0
 62
     7
 10
93.315162999999998
 20
-0.797959
 30
0.0
  0
VERTEX
  5
1EC
  8
0
 62
     7
 10
93.371845999999977
 20
-0.9481099999999999
 30
0.0
  0
VERTEX
  5
1ED
  8
0
 62
     7
 10
93.400281000000007
 20
-1.0779199999999991
 30
0.0
  0
VERTEX
  5
1EE
  8
0
 62
     7
 10
93.400349000000006
 20
-1.186845999999999
 30
0.0
  0
VERTEX
  5
1EF
  8
0
 62
     7
 10
93.372050000000002
 20
-1.2744299999999991
 30
0.0
  0
VERTEX
  5
1F0
  8
0
 62
     7
 10
93.315503000000007
 20
-1.3403059999999991
 30
0.0
  0
VERTEX
  5
1F1
  8
0
 62
     7
 10
93.230943999999994
 20
-1.3841959999999991
 30
0.0
  0
VERTEX
  5
1F2
  8
0
 62
     7
 10
93.118728000000004
 20
-1.4059170000000001
 30
0.0
  0
VERTEX
  5
1F3
  8
0
 62
     7
 10
92.979326000000015
 20
-1.4053770000000001
 30
0.0
  0
VERTEX
  5
1F4
  8
0
 62
     7
 10
92.813322999999997
 20
-1.382579999999999
 30
0.0
  0
VERTEX
  5
1F5
  8
0
 62
     7
 10
92.621414000000001
 20
-1.3376189999999999
 30
0.0
  0
VERTEX
  5
1F6
  8
0
 62
     7
 10
92.404405000000011
 20
-1.2706850000000001
 30
0.0
  0
VERTEX
  5
1F7
  8
0
 62
     7
 10
92.163207
 20
-1.1820580000000001
 30
0.0
  0
VERTEX
  5
1F8
  8
0
 62
     7
 10
91.288318999999987
 20
-0.781663
 30
0.0
 42
-0.09433
  0
VERTEX
  5
1F9
  8
0
 62
     7
 10
80.940246000000002
 20
7.234424999999999
 30
0.0
  0
SEQEND
  5
1FA
  8
0
 62
     7
  0
POLYLINE
  5
1FB
  8
0
 62
     7
 66
     1
 10
0.0
 20
0.0
 30
0.0
  0
VERTEX
  5
1FC
  8
0
 62
     7
 10
94.931639000000004
 20
23.712261000000002
 30
0.0
  0
VERTEX
  5
1FD
  8
0
 62
     7
 10
88.855160999999995
 20
26.760113
 30
0.0
  0
VERTEX
  5
1FE
  8
0
 62
     7
 10
85.137996000000001
 20
29.234677999999999
 30
0.0
  0
VERTEX
  5
1FF
  8
0
 62
     7
 10
83.941327999999984
 20
30.319105
 30
0.0
  0
VERTEX
  5
200
  8
0
 62
     7
 10
83.067093999999997
 20
31.334761
 30
0.0
  0
VERTEX
  5
201
  8
0
 62
     7
 10
82.426162999999988
 20
32.306497
 30
0.0
  0
VERTEX
  5
202
  8
0
 62
     7
 10
81.929403000000008
 20
33.259165000000003
 30
0.0
  0
VERTEX
  5
203
  8
0
 62
     7
 10
80.899843000000004
 20
35.853876999999997
 30
0.0
  0
VERTEX
  5
204
  8
0
 62
     7
 10
80.271264000000002
 20
38.466026999999997
 30
0.0
  0
VERTEX
  5
205
  8
0
 62
     7
 10
80.040640999999994
 20
41.070613999999999
 30
0.0
  0
VERTEX
  5
206
  8
0
 62
     7
 10
80.204948999999999
 20
43.642637999999991
 30
0.0
  0
VERTEX
  5
207
  8
0
 62
     7
 10
80.796025
 20
46.279647999999987
 30
0.0
  0
VERTEX
  5
208
  8
0
 62
     7
 10
81.790377000000007
 20
48.792448
 30
0.0
  0
VERTEX
  5
209
  8
0
 62
     7
 10
83.157860999999997
 20
51.120488999999999
 30
0.0
  0
VERTEX
  5
20A
  8
0
 62
     7
 10
84.868335999999999
 20
53.20322199999999
 30
0.0
  0
VERTEX
  5
20B
  8
0
 62
     7
 10
86.602993999999995
 20
54.765991000000007
 30
0.0
  0
VERTEX
  5
20C
  8
0
 62
     7
 10
88.536541999999983
 20
56.073011999999999
 30
0.0
  0
VERTEX
  5
20D
  8
0
 62
     7
 10
90.632660999999985
 20
57.098486999999999
 30
0.0
  0
VERTEX
  5
20E
  8
0
 62
     7
 10
92.855033000000006
 20
57.816619999999993
 30
0.0
  0
VERTEX
  5
20F
  8
0
 62
     7
 10
95.315050000000014
 20
58.218557999999987
 30
0.0
  0
VERTEX
  5
210
  8
0
 62
     7
 10
97.811028000000007
 20
58.236803000000002
 30
0.0
  0
VERTEX
  5
211
  8
0
 62
     7
 10
100.277012
 20
57.865168000000011
 30
0.0
  0
VERTEX
  5
212
  8
0
 62
     7
 10
102.647052
 20
57.097468000000013
 30
0.0
  0
VERTEX
  5
213
  8
0
 62
     7
 10
104.812031
 20
55.965276000000003
 30
0.0
  0
VERTEX
  5
214
  8
0
 62
     7
 10
106.76853800000001
 20
54.494706000000008
 30
0.0
  0
VERTEX
  5
215
  8
0
 62
     7
 10
108.463219
 20
52.732795000000003
 30
0.0
  0
VERTEX
  5
216
  8
0
 62
     7
 10
109.842724
 20
50.726579000000001
 30
0.0
  0
VERTEX
  5
217
  8
0
 62
     7
 10
110.630134
 20
49.123420000000003
 30
0.0
  0
VERTEX
  5
218
  8
0
 62
     7
 10
111.224222
 20
47.443783000000003
 30
0.0
  0
VERTEX
  5
219
  8
0
 62
     7
 10
111.63125700000001
 20
45.718032000000001
 30
0.0
  0
VERTEX
  5
21A
  8
0
 62
     7
 10
111.857511
 20
43.976528999999992
 30
0.0
  0
VERTEX
  5
21B
  8
0
 62
     7
 10
111.908237
 20
42.106599999999993
 30
0.0
  0
VERTEX
  5
21C
  8
0
 62
     7
 10
111.77641300000001
 20
40.263057000000003
 30
0.0
  0
VERTEX
  5
21D
  8
0
 62
     7
 10
111.050513
 20
36.692399999999999
 30
0.0
  0
VERTEX
  5
21E
  8
0
 62
     7
 10
109.53153399999999
 20
32.501095999999997
 30
0.0
  0
VERTEX
  5
21F
  8
0
 62
     7
 10
107.887985
 20
29.103100000000001
 30
0.0
  0
VERTEX
  5
220
  8
0
 62
     7
 10
106.69445
 20
27.340971
 30
0.0
  0
SEQEND
  5
221
  8
0
 62
     7
  0
POLYLINE
  5
222
  8
0
 62
     7
 66
     1
 10
0.0
 20
0.0
 30
0.0
  0
VERTEX
  5
223
  8
0
 62
     7
 10
97.669241
 20
25.964313000000001
 30
0.0
  0
VERTEX
  5
224
  8
0
 62
     7
 10
92.295122000000006
 20
27.842482
 30
0.0
  0
VERTEX
  5
225
  8
0
 62
     7
 10
90.351763000000005
 20
28.767804000000002
 30
0.0
  0
VERTEX
  5
226
  8
0
 62
     7
 10
88.813396999999995
 20
29.687449999999998
 30
0.0
  0
VERTEX
  5
227
  8
0
 62
     7
 10
87.611918000000003
 20
30.604043999999998
 30
0.0
  0
VERTEX
  5
228
  8
0
 62
     7
 10
86.679220999999998
 20
31.520208
 30
0.0
  0
VERTEX
  5
229
  8
0
 62
     7
 10
85.947201000000007
 20
32.438567999999997
 30
0.0
  0
VERTEX
  5
22A
  8
0
 62
     7
 10
85.347752
 20
33.361745999999997
 30
0.0
  0
VERTEX
  5
22B
  8
0
 62
     7
 10
84.391968999999975
 20
35.172440999999999
 30
0.0
  0
VERTEX
  5
22C
  8
0
 62
     7
 10
83.685517000000004
 20
37.009233999999999
 30
0.0
  0
VERTEX
  5
22D
  8
0
 62
     7
 10
83.235192999999995
 20
38.870224999999998
 30
0.0
  0
VERTEX
  5
22E
  8
0
 62
     7
 10
83.047794999999994
 20
40.753510999999989
 30
0.0
  0
VERTEX
  5
22F
  8
0
 62
     7
 10
83.093002999999996
 20
42.306632
 30
0.0
  0
VERTEX
  5
230
  8
0
 62
     7
 10
83.311792000000011
 20
43.853971000000001
 30
0.0
  0
VERTEX
  5
231
  8
0
 62
     7
 10
83.697171999999995
 20
45.376089999999998
 30
0.0
  0
VERTEX
  5
232
  8
0
 62
     7
 10
84.242151000000007
 20
46.853552000000001
 30
0.0
  0
VERTEX
  5
233
  8
0
 62
     7
 10
84.939738000000006
 20
48.266922000000001
 30
0.0
  0
VERTEX
  5
234
  8
0
 62
     7
 10
85.782942000000006
 20
49.596761999999998
 30
0.0
  0
VERTEX
  5
235
  8
0
 62
     7
 10
86.764773000000005
 20
50.823636
 30
0.0
  0
VERTEX
  5
236
  8
0
 62
     7
 10
87.878239000000008
 20
51.928108000000002
 30
0.0
  0
VERTEX
  5
237
  8
0
 62
     7
 10
88.979043000000004
 20
52.798121000000002
 30
0.0
  0
VERTEX
  5
238
  8
0
 62
     7
 10
90.165328999999986
 20
53.548315000000002
 30
0.0
  0
VERTEX
  5
239
  8
0
 62
     7
 10
91.422749999999994
 20
54.172468000000002
 30
0.0
  0
VERTEX
  5
23A
  8
0
 62
     7
 10
92.736963000000003
 20
54.664357999999993
 30
0.0
  0
VERTEX
  5
23B
  8
0
 62
     7
 10
94.093620999999999
 20
55.017761999999998
 30
0.0
  0
VERTEX
  5
23C
  8
0
 62
     7
 10
95.478380999999985
 20
55.226459999999989
 30
0.0
  0
VERTEX
  5
23D
  8
0
 62
     7
 10
96.876896000000002
 20
55.284229000000003
 30
0.0
  0
VERTEX
  5
23E
  8
0
 62
     7
 10
98.274822999999984
 20
55.184846999999998
 30
0.0
  0
VERTEX
  5
23F
  8
0
 62
     7
 10
99.553209999999993
 20
54.949424999999998
 30
0.0
  0
VERTEX
  5
240
  8
0
 62
     7
 10
100.803045
 20
54.579027000000004
 30
0.0
  0
VERTEX
  5
241
  8
0
 62
     7
 10
102.00853600000001
 20
54.078245000000003
 30
0.0
  0
VERTEX
  5
242
  8
0
 62
     7
 10
103.15389
 20
53.451675999999992
 30
0.0
  0
VERTEX
  5
243
  8
0
 62
     7
 10
104.22331200000001
 20
52.703912000000003
 30
0.0
  0
VERTEX
  5
244
  8
0
 62
     7
 10
105.20101
 20
51.839548999999991
 30
0.0
  0
VERTEX
  5
245
  8
0
 62
     7
 10
106.0711909999999
 20
50.86318
 30
0.0
  0
VERTEX
  5
246
  8
0
 62
     7
 10
106.818062
 20
49.779400000000003
 30
0.0
  0
VERTEX
  5
247
  8
0
 62
     7
 10
107.57283200000001
 20
48.257652
 30
0.0
  0
VERTEX
  5
248
  8
0
 62
     7
 10
108.117071
 20
46.607517000000001
 30
0.0
  0
VERTEX
  5
249
  8
0
 62
     7
 10
108.46530300000001
 20
44.866956000000002
 30
0.0
  0
VERTEX
  5
24A
  8
0
 62
     7
 10
108.632053
 20
43.073931999999992
 30
0.0
  0
VERTEX
  5
24B
  8
0
 62
     7
 10
108.479212
 20
39.482339000000003
 30
0.0
  0
VERTEX
  5
24C
  8
0
 62
     7
 10
107.774749
 20
36.136428000000002
 30
0.0
  0
VERTEX
  5
24D
  8
0
 62
     7
 10
106.26294799999999
 20
32.422259000000011
 30
0.0
  0
VERTEX
  5
24E
  8
0
 62
     7
 10
104.901633
 20
29.986260999999999
 30
0.0
  0
VERTEX
  5
24F
  8
0
 62
     7
 10
104.31994
 20
29.180225
 30
0.0
  0
SEQEND
  5
250
  8
0
 62
     7
  0
ARC
  5
251
  8
0
 62
     7
 10
112.06737800000001
 20
72.277850000000001
 30
0.0
 40
51.5
 50
250.56527
 51
253.96405799999999
  0
ARC
  5
252
  8
0
 62
     7
 10
112.06737800000001
 20
72.277850000000001
 30
0.0
 40
48.5
 50
252.730367
 51
256.38075900000001
  0
LINE
  5
253
  8
0
 62
     7
 10
41.642601999999997
 20
43.09274099999999
 30
0.0
 11
41.642601999999997
 21
-17.763342999999999
 31
0.0
  0
LINE
  5
254
  8
0
 62
     7
 10
44.642601999999997
 20
-17.763342999999999
 30
0.0
 11
44.642601999999997
 21
43.09274099999999
 31
0.0
  0
POLYLINE
  5
255
  8
0
 62
     7
 66
     1
 10
0.0
 20
0.0
 30
0.0
  0
VERTEX
  5
256
  8
0
 62
     7
 10
49.648403999999992
 20
-34.473033000000001
 30
0.0
  0
VERTEX
  5
257
  8
0
 62
     7
 10
47.463489000000003
 20
-30.260185
 30
0.0
  0
VERTEX
  5
258
  8
0
 62
     7
 10
46.446034999999988
 20
-27.490120999999998
 30
0.0
  0
SEQEND
  5
259
  8
0
 62
     7
  0
POLYLINE
  5
25A
  8
0
 62
     7
 66
     1
 10
0.0
 20
0.0
 30
0.0
  0
VERTEX
  5
25B
  8
0
 62
     7
 10
40.003166
 20
-27.31523
 30
0.0
  0
VERTEX
  5
25C
  8
0
 62
     7
 10
39.928381999999999
 20
-27.460262
 30
0.0
  0
VERTEX
  5
25D
  8
0
 62
     7
 10
39.886365000000012
 20
-27.612404000000002
 30
0.0
  0
VERTEX
  5
25E
  8
0
 62
     7
 10
39.880417000000001
 20
-27.765561999999999
 30
0.0
  0
VERTEX
  5
25F
  8
0
 62
     7
 10
39.910602000000011
 20
-27.918058000000009
 30
0.0
  0
VERTEX
  5
260
  8
0
 62
     7
 10
39.976589000000011
 20
-28.06822
 30
0.0
  0
VERTEX
  5
261
  8
0
 62
     7
 10
40.077655
 20
-28.214403999999998
 30
0.0
  0
VERTEX
  5
262
  8
0
 62
     7
 10
40.212693000000002
 20
-28.355008000000002
 30
0.0
  0
VERTEX
  5
263
  8
0
 62
     7
 10
40.380223999999998
 20
-28.488492000000001
 30
0.0
  0
VERTEX
  5
264
  8
0
 62
     7
 10
40.578412
 20
-28.613392000000001
 30
0.0
  0
VERTEX
  5
265
  8
0
 62
     7
 10
40.805084999999991
 20
-28.728341
 30
0.0
  0
VERTEX
  5
266
  8
0
 62
     7
 10
41.057760999999992
 20
-28.832079
 30
0.0
  0
VERTEX
  5
267
  8
0
 62
     7
 10
41.333669999999991
 20
-28.923469000000001
 30
0.0
  0
VERTEX
  5
268
  8
0
 62
     7
 10
41.629789999999993
 20
-29.001511000000001
 30
0.0
  0
VERTEX
  5
269
  8
0
 62
     7
 10
41.942877000000003
 20
-29.065349000000001
 30
0.0
  0
VERTEX
  5
26A
  8
0
 62
     7
 10
42.269500000000001
 20
-29.114284000000001
 30
0.0
  0
VERTEX
  5
26B
  8
0
 62
     7
 10
43.294296000000003
 20
-29.167157
 30
0.0
  0
VERTEX
  5
26C
  8
0
 62
     7
 10
44.307743000000002
 20
-29.076913999999999
 30
0.0
  0
VERTEX
  5
26D
  8
0
 62
     7
 10
44.625669000000002
 20
-29.016162000000001
 30
0.0
  0
VERTEX
  5
26E
  8
0
 62
     7
 10
44.927737999999998
 20
-28.941046
 30
0.0
  0
VERTEX
  5
26F
  8
0
 62
     7
 10
45.210639999999998
 20
-28.852388000000001
 30
0.0
  0
VERTEX
  5
270
  8
0
 62
     7
 10
45.471276000000003
 20
-28.751161
 30
0.0
  0
VERTEX
  5
271
  8
0
 62
     7
 10
45.706790000000012
 20
-28.638472
 30
0.0
  0
VERTEX
  5
272
  8
0
 62
     7
 10
45.914603
 20
-28.515557999999999
 30
0.0
  0
VERTEX
  5
273
  8
0
 62
     7
 10
46.092435999999999
 20
-28.383762999999998
 30
0.0
  0
VERTEX
  5
274
  8
0
 62
     7
 10
46.238343
 20
-28.244533000000001
 30
0.0
  0
VERTEX
  5
275
  8
0
 62
     7
 10
46.350724
 20
-28.099392999999999
 30
0.0
  0
VERTEX
  5
276
  8
0
 62
     7
 10
46.428346999999988
 20
-27.949933000000001
 30
0.0
  0
VERTEX
  5
277
  8
0
 62
     7
 10
46.470363999999996
 20
-27.797791
 30
0.0
  0
VERTEX
  5
278
  8
0
 62
     7
 10
46.476312
 20
-27.644632999999999
 30
0.0
  0
VERTEX
  5
279
  8
0
 62
     7
 10
46.446126999999997
 20
-27.492137
 30
0.0
  0
VERTEX
  5
27A
  8
0
 62
     7
 10
46.380139999999997
 20
-27.341974
 30
0.0
  0
VERTEX
  5
27B
  8
0
 62
     7
 10
46.362757999999992
 20
-27.312455
 30
0.0
  0
SEQEND
  5
27C
  8
0
 62
     7
  0
POLYLINE
  5
27D
  8
0
 62
     7
 66
     1
 10
0.0
 20
0.0
 30
0.0
  0
VERTEX
  5
27E
  8
0
 62
     7
 10
39.906562999999998
 20
-27.510674000000002
 30
0.0
  0
VERTEX
  5
27F
  8
0
 62
     7
 10
38.022236999999997
 20
-32.238933000000003
 30
0.0
  0
VERTEX
  5
280
  8
0
 62
     7
 10
33.157001999999999
 20
-41.479944000000003
 30
0.0
  0
VERTEX
  5
281
  8
0
 62
     7
 10
33.012610000000002
 20
-41.891725000000001
 30
0.0
  0
VERTEX
  5
282
  8
0
 62
     7
 10
32.901831000000001
 20
-42.308084999999998
 30
0.0
  0
VERTEX
  5
283
  8
0
 62
     7
 10
32.824361000000003
 20
-42.727077000000001
 30
0.0
  0
VERTEX
  5
284
  8
0
 62
     7
 10
32.779795999999997
 20
-43.146715999999991
 30
0.0
  0
VERTEX
  5
285
  8
0
 62
     7
 10
32.767617000000001
 20
-43.565038000000001
 30
0.0
  0
VERTEX
  5
286
  8
0
 62
     7
 10
32.787185000000001
 20
-43.980147000000002
 30
0.0
  0
VERTEX
  5
287
  8
0
 62
     7
 10
32.837733
 20
-44.390098000000002
 30
0.0
  0
VERTEX
  5
288
  8
0
 62
     7
 10
32.918377
 20
-44.793145000000003
 30
0.0
  0
VERTEX
  5
289
  8
0
 62
     7
 10
33.028191
 20
-45.187832999999998
 30
0.0
  0
VERTEX
  5
28A
  8
0
 62
     7
 10
33.166241999999997
 20
-45.572901000000002
 30
0.0
  0
VERTEX
  5
28B
  8
0
 62
     7
 10
33.27935200000001
 20
-45.834887999999999
 30
0.0
  0
VERTEX
  5
28C
  8
0
 62
     7
 10
33.420673999999998
 20
-46.092015000000004
 30
0.0
  0
VERTEX
  5
28D
  8
0
 62
     7
 10
33.595835000000001
 20
-46.344928000000003
 30
0.0
  0
VERTEX
  5
28E
  8
0
 62
     7
 10
33.804231000000001
 20
-46.592753999999999
 30
0.0
  0
VERTEX
  5
28F
  8
0
 62
     7
 10
34.045144999999998
 20
-46.834639999999993
 30
0.0
  0
VERTEX
  5
290
  8
0
 62
     7
 10
34.317743999999998
 20
-47.069750999999997
 30
0.0
  0
VERTEX
  5
291
  8
0
 62
     7
 10
34.621090000000002
 20
-47.297277000000001
 30
0.0
  0
VERTEX
  5
292
  8
0
 62
     7
 10
34.954138
 20
-47.516433999999997
 30
0.0
  0
VERTEX
  5
293
  8
0
 62
     7
 10
35.315738000000003
 20
-47.726467
 30
0.0
  0
VERTEX
  5
294
  8
0
 62
     7
 10
36.558923999999998
 20
-48.294747999999991
 30
0.0
  0
VERTEX
  5
295
  8
0
 62
     7
 10
38.530459999999998
 20
-48.884950000000003
 30
0.0
  0
VERTEX
  5
296
  8
0
 62
     7
 10
41.934509999999989
 20
-49.349918000000002
 30
0.0
  0
VERTEX
  5
297
  8
0
 62
     7
 10
45.498584999999999
 20
-49.264431999999999
 30
0.0
  0
VERTEX
  5
298
  8
0
 62
     7
 10
48.274329999999999
 20
-48.778244000000001
 30
0.0
  0
VERTEX
  5
299
  8
0
 62
     7
 10
50.194827000000011
 20
-48.145418999999997
 30
0.0
  0
VERTEX
  5
29A
  8
0
 62
     7
 10
51.389468999999998
 20
-47.55044199999999
 30
0.0
  0
VERTEX
  5
29B
  8
0
 62
     7
 10
51.733216999999989
 20
-47.332684999999998
 30
0.0
  0
VERTEX
  5
29C
  8
0
 62
     7
 10
52.047677
 20
-47.106437
 30
0.0
  0
VERTEX
  5
29D
  8
0
 62
     7
 10
52.331764999999997
 20
-46.872478000000001
 30
0.0
  0
VERTEX
  5
29E
  8
0
 62
     7
 10
52.58450100000001
 20
-46.631613000000002
 30
0.0
  0
VERTEX
  5
29F
  8
0
 62
     7
 10
52.805014999999997
 20
-46.384674999999987
 30
0.0
  0
VERTEX
  5
2A0
  8
0
 62
     7
 10
52.992545999999997
 20
-46.132511999999991
 30
0.0
  0
VERTEX
  5
2A1
  8
0
 62
     7
 10
53.146447999999992
 20
-45.875995999999986
 30
0.0
  0
VERTEX
  5
2A2
  8
0
 62
     7
 10
53.227982999999988
 20
-45.702617999999987
 30
0.0
  0
VERTEX
  5
2A3
  8
0
 62
     7
 10
53.322570999999989
 20
-45.477952999999992
 30
0.0
  0
VERTEX
  5
2A4
  8
0
 62
     7
 10
53.463825999999997
 20
-45.065666
 30
0.0
  0
VERTEX
  5
2A5
  8
0
 62
     7
 10
53.571492999999997
 20
-44.648978
 30
0.0
  0
VERTEX
  5
2A6
  8
0
 62
     7
 10
53.645883999999988
 20
-44.229841999999998
 30
0.0
  0
VERTEX
  5
2A7
  8
0
 62
     7
 10
53.687412999999992
 20
-43.810243999999997
 30
0.0
  0
VERTEX
  5
2A8
  8
0
 62
     7
 10
53.69661
 20
-43.392141999999993
 30
0.0
  0
VERTEX
  5
2A9
  8
0
 62
     7
 10
53.674126000000001
 20
-42.977424999999997
 30
0.0
  0
VERTEX
  5
2AA
  8
0
 62
     7
 10
53.620741000000002
 20
-42.568049000000002
 30
0.0
  0
VERTEX
  5
2AB
  8
0
 62
     7
 10
53.537343999999997
 20
-42.165721999999988
 30
0.0
  0
VERTEX
  5
2AC
  8
0
 62
     7
 10
53.424863999999999
 20
-41.771878999999991
 30
0.0
  0
VERTEX
  5
2AD
  8
0
 62
     7
 10
53.284232999999993
 20
-41.387762000000002
 30
0.0
  0
VERTEX
  5
2AE
  8
0
 62
     7
 10
52.939171999999999
 20
-40.609451
 30
0.0
  0
VERTEX
  5
2AF
  8
0
 62
     7
 10
49.646943
 20
-34.477566000000003
 30
0.0
  0
VERTEX
  5
2B0
  8
0
 62
     7
 10
49.667940999999999
 20
-34.509128000000011
 30
0.0
  0
VERTEX
  5
2B1
  8
0
 62
     7
 10
49.775801999999999
 20
-34.720072999999999
 30
0.0
  0
VERTEX
  5
2B2
  8
0
 62
     7
 10
49.848601000000002
 20
-34.934041000000001
 30
0.0
  0
VERTEX
  5
2B3
  8
0
 62
     7
 10
49.885950000000001
 20
-35.149892000000001
 30
0.0
  0
VERTEX
  5
2B4
  8
0
 62
     7
 10
49.887648999999989
 20
-35.366472999999999
 30
0.0
  0
VERTEX
  5
2B5
  8
0
 62
     7
 10
49.85369
 20
-35.582630000000002
 30
0.0
  0
VERTEX
  5
2B6
  8
0
 62
     7
 10
49.784253
 20
-35.797207999999998
 30
0.0
  0
VERTEX
  5
2B7
  8
0
 62
     7
 10
49.679709000000003
 20
-36.009064000000002
 30
0.0
  0
VERTEX
  5
2B8
  8
0
 62
     7
 10
49.540616
 20
-36.217065999999988
 30
0.0
  0
VERTEX
  5
2B9
  8
0
 62
     7
 10
49.367714999999997
 20
-36.420105
 30
0.0
  0
VERTEX
  5
2BA
  8
0
 62
     7
 10
49.161931000000003
 20
-36.617096999999987
 30
0.0
  0
VERTEX
  5
2BB
  8
0
 62
     7
 10
48.924359000000003
 20
-36.806992000000001
 30
0.0
  0
VERTEX
  5
2BC
  8
0
 62
     7
 10
48.656269000000002
 20
-36.988776999999999
 30
0.0
  0
VERTEX
  5
2BD
  8
0
 62
     7
 10
48.359090000000002
 20
-37.161479999999997
 30
0.0
  0
VERTEX
  5
2BE
  8
0
 62
     7
 10
48.034407999999999
 20
-37.324182
 30
0.0
  0
VERTEX
  5
2BF
  8
0
 62
     7
 10
47.68395499999999
 20
-37.476013999999999
 30
0.0
  0
VERTEX
  5
2C0
  8
0
 62
     7
 10
46.497295999999992
 20
-37.858504000000003
 30
0.0
  0
VERTEX
  5
2C1
  8
0
 62
     7
 10
44.680940999999997
 20
-38.174751999999998
 30
0.0
  0
VERTEX
  5
2C2
  8
0
 62
     7
 10
42.25366799999999
 20
-38.224503000000013
 30
0.0
  0
VERTEX
  5
2C3
  8
0
 62
     7
 10
40.387016999999993
 20
-37.983746000000011
 30
0.0
  0
VERTEX
  5
2C4
  8
0
 62
     7
 10
38.759267000000001
 20
-37.514294
 30
0.0
  0
VERTEX
  5
2C5
  8
0
 62
     7
 10
38.406455000000001
 20
-37.365479000000001
 30
0.0
  0
VERTEX
  5
2C6
  8
0
 62
     7
 10
38.079242000000001
 20
-37.205573000000001
 30
0.0
  0
VERTEX
  5
2C7
  8
0
 62
     7
 10
37.779373
 20
-37.035429999999998
 30
0.0
  0
VERTEX
  5
2C8
  8
0
 62
     7
 10
37.508448999999999
 20
-36.855956999999997
 30
0.0
  0
VERTEX
  5
2C9
  8
0
 62
     7
 10
37.267914000000012
 20
-36.668112999999998
 30
0.0
  0
VERTEX
  5
2CA
  8
0
 62
     7
 10
37.059052000000001
 20
-36.472898999999998
 30
0.0
  0
VERTEX
  5
2CB
  8
0
 62
     7
 10
36.882978000000001
 20
-36.271357000000002
 30
0.0
  0
VERTEX
  5
2CC
  8
0
 62
     7
 10
36.740631
 20
-36.064562000000002
 30
0.0
  0
VERTEX
  5
2CD
  8
0
 62
     7
 10
36.632770000000001
 20
-35.853617999999997
 30
0.0
  0
VERTEX
  5
2CE
  8
0
 62
     7
 10
36.559970999999997
 20
-35.639648999999999
 30
0.0
  0
VERTEX
  5
2CF
  8
0
 62
     7
 10
36.522621999999998
 20
-35.423799000000002
 30
0.0
  0
VERTEX
  5
2D0
  8
0
 62
     7
 10
36.520923000000003
 20
-35.207217
 30
0.0
  0
VERTEX
  5
2D1
  8
0
 62
     7
 10
36.554882999999997
 20
-34.991061000000002
 30
0.0
  0
VERTEX
  5
2D2
  8
0
 62
     7
 10
36.624320000000012
 20
-34.776482000000001
 30
0.0
  0
VERTEX
  5
2D3
  8
0
 62
     7
 10
36.728864000000002
 20
-34.564627000000002
 30
0.0
  0
VERTEX
  5
2D4
  8
0
 62
     7
 10
36.753818000000003
 20
-34.522879000000003
 30
0.0
  0
SEQEND
  5
2D5
  8
0
 62
     7
  0
POLYLINE
  5
2D6
  8
0
 62
     7
 66
     1
 10
0.0
 20
0.0
 30
0.0
  0
VERTEX
  5
2D7
  8
0
 62
     7
 10
35.899039999999999
 20
-48.050870000000003
 30
0.0
  0
VERTEX
  5
2D8
  8
0
 62
     7
 10
37.449897999999997
 20
-48.716434999999997
 30
0.0
  0
VERTEX
  5
2D9
  8
0
 62
     7
 10
39.563186000000002
 20
-49.27264799999999
 30
0.0
  0
VERTEX
  5
2DA
  8
0
 62
     7
 10
42.363213000000002
 20
-49.588203999999998
 30
0.0
  0
VERTEX
  5
2DB
  8
0
 62
     7
 10
45.742258999999997
 20
-49.442391000000001
 30
0.0
  0
VERTEX
  5
2DC
  8
0
 62
     7
 10
48.437860000000001
 20
-48.876999999999988
 30
0.0
  0
VERTEX
  5
2DD
  8
0
 62
     7
 10
50.411314000000012
 20
-48.099423999999999
 30
0.0
  0
VERTEX
  5
2DE
  8
0
 62
     7
 10
50.621434000000001
 20
-47.986094999999999
 30
0.0
  0
SEQEND
  5
2DF
  8
0
 62
     7
  0
POLYLINE
  5
2E0
  8
0
 62
     7
 66
     1
 10
0.0
 20
0.0
 30
0.0
  0
VERTEX
  5
2E1
  8
0
 62
     7
 10
33.227122000000001
 20
-41.310217000000002
 30
0.0
  0
VERTEX
  5
2E2
  8
0
 62
     7
 10
33.148883000000012
 20
-41.517238999999996
 30
0.0
  0
VERTEX
  5
2E3
  8
0
 62
     7
 10
33.081099000000002
 20
-41.780817999999996
 30
0.0
  0
VERTEX
  5
2E4
  8
0
 62
     7
 10
33.048291999999996
 20
-42.045611000000001
 30
0.0
  0
VERTEX
  5
2E5
  8
0
 62
     7
 10
33.050576
 20
-42.310704999999999
 30
0.0
  0
VERTEX
  5
2E6
  8
0
 62
     7
 10
33.08794300000001
 20
-42.575187
 30
0.0
  0
VERTEX
  5
2E7
  8
0
 62
     7
 10
33.160263
 20
-42.838143999999993
 30
0.0
  0
VERTEX
  5
2E8
  8
0
 62
     7
 10
33.267288000000001
 20
-43.098669999999991
 30
0.0
  0
VERTEX
  5
2E9
  8
0
 62
     7
 10
33.408647999999999
 20
-43.355866999999989
 30
0.0
  0
VERTEX
  5
2EA
  8
0
 62
     7
 10
33.583857000000002
 20
-43.608848000000002
 30
0.0
  0
VERTEX
  5
2EB
  8
0
 62
     7
 10
33.792310000000001
 20
-43.85674199999999
 30
0.0
  0
VERTEX
  5
2EC
  8
0
 62
     7
 10
34.033287999999999
 20
-44.098694000000002
 30
0.0
  0
VERTEX
  5
2ED
  8
0
 62
     7
 10
34.305962000000001
 20
-44.333869
 30
0.0
  0
VERTEX
  5
2EE
  8
0
 62
     7
 10
34.609391000000002
 20
-44.56145699999999
 30
0.0
  0
VERTEX
  5
2EF
  8
0
 62
     7
 10
34.942529
 20
-44.780673999999991
 30
0.0
  0
VERTEX
  5
2F0
  8
0
 62
     7
 10
35.304227000000012
 20
-44.990763999999992
 30
0.0
  0
VERTEX
  5
2F1
  8
0
 62
     7
 10
36.547752000000003
 20
-45.559199
 30
0.0
  0
VERTEX
  5
2F2
  8
0
 62
     7
 10
38.519824
 20
-46.149560999999991
 30
0.0
  0
VERTEX
  5
2F3
  8
0
 62
     7
 10
41.924799999999991
 20
-46.614656999999987
 30
0.0
  0
VERTEX
  5
2F4
  8
0
 62
     7
 10
45.489845000000003
 20
-46.529146999999988
 30
0.0
  0
VERTEX
  5
2F5
  8
0
 62
     7
 10
48.266343999999997
 20
-46.042825999999998
 30
0.0
  0
VERTEX
  5
2F6
  8
0
 62
     7
 10
50.187364000000002
 20
-45.409829999999992
 30
0.0
  0
VERTEX
  5
2F7
  8
0
 62
     7
 10
51.382331000000001
 20
-44.814690999999989
 30
0.0
  0
VERTEX
  5
2F8
  8
0
 62
     7
 10
51.726171999999998
 20
-44.596874999999997
 30
0.0
  0
VERTEX
  5
2F9
  8
0
 62
     7
 10
52.040717999999998
 20
-44.370564999999992
 30
0.0
  0
VERTEX
  5
2FA
  8
0
 62
     7
 10
52.324882999999993
 20
-44.136541999999992
 30
0.0
  0
VERTEX
  5
2FB
  8
0
 62
     7
 10
52.577688000000002
 20
-43.895612
 30
0.0
  0
VERTEX
  5
2FC
  8
0
 62
     7
 10
52.798262000000001
 20
-43.648606000000001
 30
0.0
  0
VERTEX
  5
2FD
  8
0
 62
     7
 10
52.985843999999993
 20
-43.396374999999999
 30
0.0
  0
VERTEX
  5
2FE
  8
0
 62
     7
 10
53.139786999999991
 20
-43.139789
 30
0.0
  0
VERTEX
  5
2FF
  8
0
 62
     7
 10
53.259562000000003
 20
-42.879732999999987
 30
0.0
  0
VERTEX
  5
300
  8
0
 62
     7
 10
53.344754999999999
 20
-42.617100999999998
 30
0.0
  0
VERTEX
  5
301
  8
0
 62
     7
 10
53.395071999999992
 20
-42.352800999999992
 30
0.0
  0
VERTEX
  5
302
  8
0
 62
     7
 10
53.410339999999998
 20
-42.087744000000001
 30
0.0
  0
VERTEX
  5
303
  8
0
 62
     7
 10
53.390506000000009
 20
-41.822842000000001
 30
0.0
  0
VERTEX
  5
304
  8
0
 62
     7
 10
53.335639
 20
-41.559009000000003
 30
0.0
  0
VERTEX
  5
305
  8
0
 62
     7
 10
53.245927999999999
 20
-41.297153999999999
 30
0.0
  0
VERTEX
  5
306
  8
0
 62
     7
 10
53.222341999999998
 20
-41.241714000000002
 30
0.0
  0
SEQEND
  5
307
  8
0
 62
     7
  0
POLYLINE
  5
308
  8
0
 62
     7
 66
     1
 10
0.0
 20
0.0
 30
0.0
  0
VERTEX
  5
309
  8
0
 62
     7
 10
41.647450999999997
 20
-17.763342999999999
 30
0.0
  0
VERTEX
  5
30A
  8
0
 62
     7
 10
41.645280999999997
 20
-17.82631099999999
 30
0.0
  0
VERTEX
  5
30B
  8
0
 62
     7
 10
41.670192
 20
-17.927471000000001
 30
0.0
  0
VERTEX
  5
30C
  8
0
 62
     7
 10
41.729659999999988
 20
-18.025665
 30
0.0
  0
VERTEX
  5
30D
  8
0
 62
     7
 10
41.822290999999993
 20
-18.118589
 30
0.0
  0
VERTEX
  5
30E
  8
0
 62
     7
 10
41.94591299999999
 20
-18.204066000000001
 30
0.0
  0
VERTEX
  5
30F
  8
0
 62
     7
 10
42.097628999999998
 20
-18.280093000000001
 30
0.0
  0
VERTEX
  5
310
  8
0
 62
     7
 10
42.273882999999998
 20
-18.344885999999999
 30
0.0
  0
VERTEX
  5
311
  8
0
 62
     7
 10
42.47054399999999
 20
-18.396929
 30
0.0
  0
VERTEX
  5
312
  8
0
 62
     7
 10
42.683002000000002
 20
-18.434999999999999
 30
0.0
  0
VERTEX
  5
313
  8
0
 62
     7
 10
42.906275999999991
 20
-18.458207999999999
 30
0.0
  0
VERTEX
  5
314
  8
0
 62
     7
 10
43.135134999999998
 20
-18.466007999999999
 30
0.0
  0
VERTEX
  5
315
  8
0
 62
     7
 10
43.364212999999999
 20
-18.458217999999999
 30
0.0
  0
VERTEX
  5
316
  8
0
 62
     7
 10
43.588141
 20
-18.435020999999999
 30
0.0
  0
VERTEX
  5
317
  8
0
 62
     7
 10
43.801670999999999
 20
-18.396958999999999
 30
0.0
  0
VERTEX
  5
318
  8
0
 62
     7
 10
43.999797999999991
 20
-18.344925
 30
0.0
  0
VERTEX
  5
319
  8
0
 62
     7
 10
44.177877000000002
 20
-18.280138999999998
 30
0.0
  0
VERTEX
  5
31A
  8
0
 62
     7
 10
44.331733999999997
 20
-18.20412
 30
0.0
  0
VERTEX
  5
31B
  8
0
 62
     7
 10
44.457763999999997
 20
-18.118648
 30
0.0
  0
VERTEX
  5
31C
  8
0
 62
     7
 10
44.553012000000003
 20
-18.025728000000001
 30
0.0
  0
VERTEX
  5
31D
  8
0
 62
     7
 10
44.615245999999992
 20
-17.927537999999998
 30
0.0
  0
VERTEX
  5
31E
  8
0
 62
     7
 10
44.64300699999999
 20
-17.826377999999998
 30
0.0
  0
VERTEX
  5
31F
  8
0
 62
     7
 10
44.642601999999997
 20
-17.763342999999999
 30
0.0
  0
SEQEND
  5
320
  8
0
 62
     7
  0
POLYLINE
  5
321
  8
0
 62
     7
 66
     1
 10
0.0
 20
0.0
 30
0.0
  0
VERTEX
  5
322
  8
0
 62
     7
 10
41.642470000000003
 20
-17.806197000000001
 30
0.0
  0
VERTEX
  5
323
  8
0
 62
     7
 10
41.248038999999991
 20
-22.610104
 30
0.0
  0
VERTEX
  5
324
  8
0
 62
     7
 10
40.126620000000003
 20
-26.998104000000001
 30
0.0
  0
VERTEX
  5
325
  8
0
 62
     7
 10
39.969324999999998
 20
-27.435441999999998
 30
0.0
  0
VERTEX
  5
326
  8
0
 62
     7
 10
39.937412999999999
 20
-27.560904000000001
 30
0.0
  0
VERTEX
  5
327
  8
0
 62
     7
 10
39.929642000000001
 20
-27.711729999999999
 30
0.0
  0
VERTEX
  5
328
  8
0
 62
     7
 10
39.957462
 20
-27.861992000000001
 30
0.0
  0
VERTEX
  5
329
  8
0
 62
     7
 10
40.020569999999992
 20
-28.010044000000001
 30
0.0
  0
VERTEX
  5
32A
  8
0
 62
     7
 10
40.118274
 20
-28.154264000000001
 30
0.0
  0
VERTEX
  5
32B
  8
0
 62
     7
 10
40.249502999999997
 20
-28.293071999999999
 30
0.0
  0
VERTEX
  5
32C
  8
0
 62
     7
 10
40.412818999999999
 20
-28.424946999999989
 30
0.0
  0
VERTEX
  5
32D
  8
0
 62
     7
 10
40.606434
 20
-28.548444
 30
0.0
  0
VERTEX
  5
32E
  8
0
 62
     7
 10
40.828225000000003
 20
-28.662210000000002
 30
0.0
  0
VERTEX
  5
32F
  8
0
 62
     7
 10
41.075763999999999
 20
-28.764999
 30
0.0
  0
VERTEX
  5
330
  8
0
 62
     7
 10
41.346336999999998
 20
-28.855685000000001
 30
0.0
  0
VERTEX
  5
331
  8
0
 62
     7
 10
41.636980999999999
 20
-28.933273
 30
0.0
  0
VERTEX
  5
332
  8
0
 62
     7
 10
41.944509999999987
 20
-28.996914
 30
0.0
  0
VERTEX
  5
333
  8
0
 62
     7
 10
42.265557000000001
 20
-29.045911
 30
0.0
  0
VERTEX
  5
334
  8
0
 62
     7
 10
43.274113999999997
 20
-29.100501999999999
 30
0.0
  0
VERTEX
  5
335
  8
0
 62
     7
 10
44.273282999999999
 20
-29.014113999999999
 30
0.0
  0
VERTEX
  5
336
  8
0
 62
     7
 10
44.587134999999989
 20
-28.955062000000002
 30
0.0
  0
VERTEX
  5
337
  8
0
 62
     7
 10
44.885550000000002
 20
-28.881824999999999
 30
0.0
  0
VERTEX
  5
338
  8
0
 62
     7
 10
45.165258999999999
 20
-28.795203999999998
 30
0.0
  0
VERTEX
  5
339
  8
0
 62
     7
 10
45.423197999999999
 20
-28.696148000000001
 30
0.0
  0
VERTEX
  5
33A
  8
0
 62
     7
 10
45.65654
 20
-28.585743999999998
 30
0.0
  0
VERTEX
  5
33B
  8
0
 62
     7
 10
45.862728999999987
 20
-28.465198999999998
 30
0.0
  0
VERTEX
  5
33C
  8
0
 62
     7
 10
46.039506000000003
 20
-28.335836
 30
0.0
  0
VERTEX
  5
33D
  8
0
 62
     7
 10
46.184934000000013
 20
-28.199072000000001
 30
0.0
  0
VERTEX
  5
33E
  8
0
 62
     7
 10
46.297420000000002
 20
-28.056404000000001
 30
0.0
  0
VERTEX
  5
33F
  8
0
 62
     7
 10
46.375731000000002
 20
-27.909396999999998
 30
0.0
  0
VERTEX
  5
340
  8
0
 62
     7
 10
46.419009000000003
 20
-27.75966
 30
0.0
  0
VERTEX
  5
341
  8
0
 62
     7
 10
46.426780999999998
 20
-27.608834000000002
 30
0.0
  0
VERTEX
  5
342
  8
0
 62
     7
 10
46.398959999999988
 20
-27.458572
 30
0.0
  0
VERTEX
  5
343
  8
0
 62
     7
 10
46.385016
 20
-27.413900999999999
 30
0.0
  0
VERTEX
  5
344
  8
0
 62
     7
 10
45.009671999999988
 20
-22.219683
 30
0.0
  0
VERTEX
  5
345
  8
0
 62
     7
 10
44.647795000000002
 20
-17.795639999999999
 30
0.0
  0
SEQEND
  5
346
  8
0
 62
     7
  0
LINE
  5
347
  8
0
 62
     7
 10
44.642601999999997
 20
43.09274099999999
 30
0.0
 11
41.642601999999997
 21
43.09274099999999
 31
0.0
  0
DIMENSION
  5
355
  8
0
 62
     5
  2
*D2
 10
34.142602000000011
 20
78.5
 30
0.0
 11
43.142601999999997
 21
78.5
 31
0.0
  1
<>
 13
52.142601999999997
 23
68.392741000000001
 33
0.0
 14
34.142602000000011
 24
68.392741000000001
 34
0.0
  0
POLYLINE
  5
356
  8
0
 62
     7
 66
     1
 10
0.0
 20
0.0
 30
0.0
 70
     1
  0
VERTEX
  5
357
  8
0
 62
     7
 10
46.292602000000002
 20
59.092741000000011
 30
0.0
  0
VERTEX
  5
358
  8
0
 62
     7
 10
39.992602000000012
 20
59.092741000000011
 30
0.0
 42
0.126782
  0
VERTEX
  5
359
  8
0
 62
     7
 10
34.39090800000001
 20
67.535243999999992
 30
0.0
  0
VERTEX
  5
35A
  8
0
 62
     7
 10
51.894295999999997
 20
67.535243999999992
 30
0.0
 42
0.126782
  0
VERTEX
  5
35B
  8
0
 62
     7
 10
46.292602000000002
 20
59.092741000000011
 30
0.0
  0
SEQEND
  5
35C
  8
0
 62
     7
  0
POLYLINE
  5
35D
  8
0
 62
     7
 66
     1
 10
0.0
 20
0.0
 30
0.0
  0
VERTEX
  5
35E
  8
0
 62
     7
 10
44.642601999999997
 20
43.09274099999999
 30
0.0
  0
VERTEX
  5
35F
  8
0
 62
     7
 10
44.642601999999997
 20
48.09274099999999
 30
0.0
  0
VERTEX
  5
360
  8
0
 62
     7
 10
41.642601999999997
 20
48.09274099999999
 30
0.0
 42
0.079764
  0
VERTEX
  5
361
  8
0
 62
     7
 10
39.892601999999997
 20
58.992741000000002
 30
0.0
  0
VERTEX
  5
362
  8
0
 62
     7
 10
46.392601999999997
 20
58.992741000000002
 30
0.0
 42
0.079764
  0
VERTEX
  5
363
  8
0
 62
     7
 10
44.642601999999997
 20
48.09274099999999
 30
0.0
  0
SEQEND
  5
364
  8
0
 62
     7
  0
POLYLINE
  5
365
  8
0
 62
     7
 66
     1
 10
0.0
 20
0.0
 30
0.0
  0
VERTEX
  5
366
  8
0
 62
     7
 10
51.894295999999997
 20
67.535243999999992
 30
0.0
 42
0.212629
  0
VERTEX
  5
367
  8
0
 62
     7
 10
52.142601999999997
 20
68.092741000000004
 30
0.0
  0
VERTEX
  5
368
  8
0
 62
     7
 10
52.142601999999997
 20
68.392741000000001
 30
0.0
  0
VERTEX
  5
369
  8
0
 62
     7
 10
34.142602000000011
 20
68.392741000000001
 30
0.0
  0
VERTEX
  5
36A
  8
0
 62
     7
 10
34.142602000000011
 20
68.092741000000004
 30
0.0
 42
0.212629
  0
VERTEX
  5
36B
  8
0
 62
     7
 10
34.39090800000001
 20
67.535243999999992
 30
0.0
  0
SEQEND
  5
36C
  8
0
 62
     7
  0
LINE
  5
36D
  8
0
 62
     7
 10
34.142602000000011
 20
68.092741000000004
 30
0.0
 11
52.142601999999997
 21
68.092741000000004
 31
0.0
  0
LINE
  5
36E
  8
0
 62
     7
 10
41.642601999999997
 20
48.09274099999999
 30
0.0
 11
41.642601999999997
 21
43.09274099999999
 31
0.0
  0
LINE
  5
36F
  8
0
 62
     7
 10
46.192602000000001
 20
58.992741000000002
 30
0.0
 11
46.192602000000001
 21
59.092741000000011
 31
0.0
  0
LINE
  5
370
  8
0
 62
     7
 10
40.092601999999992
 20
59.092741000000011
 30
0.0
 11
40.092601999999992
 21
58.992741000000002
 31
0.0
  0
ENDSEC
  0
EOF
